ORF Vienna Radio Symphony Orchestra & Gregor Bühl - Orchestral Works (2021) [Official Digital Download 24/96]

Posted By: pyatak
ORF Vienna Radio Symphony Orchestra & Gregor Bühl - Orchestral Works (2021) [Official Digital Download 24/96]

ORF Vienna Radio Symphony Orchestra & Gregor Bühl - Orchestral Works (2021) [Official Digital Download 24/96]
FLAC (tracks) 24-bit/96 kHz | Front Cover | Time - 59:07 minutes | 1,02 GB
Classical | Label: Capriccio, Official Digital Download

Slightly the audience remember that Im as a descendant of writing tonal music still alive and continue composing. (Walter Braunfels, 1946) Walter Braunfels is a composer whose music died twice: Once when the Nazis declared his music degenerate art. Then again when post-war Germany had little use for the various schools of tonal music; when the arbiters of taste considered any form of romantic music almost the whole pre-war aesthetic to be tainted. This 9th release of Capriccios Braunfels Edition shows us also an open-minded composer who experimented with Jazz elements in his Divertimento for radio-orchestra in 1929.

TRACKLIST

01. ORF Vienna Radio Symphony Orchestra & Gregor Bühl - Braunfels: Don Gil von den grünen Hosen, Op. 35: Prelude
02. ORF Vienna Radio Symphony Orchestra & Gregor Bühl - Braunfels: Divertimento, Op. 42: I. Mäßig bewegt
03. ORF Vienna Radio Symphony Orchestra & Gregor Bühl - Braunfels: Divertimento, Op. 42: II. Gemessen, doch immer bewegt
04. ORF Vienna Radio Symphony Orchestra & Gregor Bühl - Braunfels: Divertimento, Op. 42: III. Langsam
05. ORF Vienna Radio Symphony Orchestra & Gregor Bühl - Braunfels: Divertimento, Op. 42: IV. Zeitmaß der Sarabande
06. ORF Vienna Radio Symphony Orchestra & Gregor Bühl - Braunfels: Divertimento, Op. 42: V. Sehr lebhaft
07. ORF Vienna Radio Symphony Orchestra & Gregor Bühl - Braunfels: Ariels Gesang, Op. 18
08. ORF Vienna Radio Symphony Orchestra & Gregor Bühl - Braunfels: Serenade in E-Flat Major, Op. 20: I. Leicht bewegt
09. ORF Vienna Radio Symphony Orchestra & Gregor Bühl - Braunfels: Serenade in E-Flat Major, Op. 20: II. Lebhaft, ausgelassen
10. ORF Vienna Radio Symphony Orchestra & Gregor Bühl - Braunfels: Serenade in E-Flat Major, Op. 20: III. Ruhig
11. ORF Vienna Radio Symphony Orchestra & Gregor Bühl - Braunfels: Serenade in E-Flat Major, Op. 20: IV. Die Achtel fast so rasch wie bisher

foobar2000 1.6.2 / Dynamic Range Meter 1.1.1
log date: 2021-05-04 10:45:17

––––––––––––––––––––––––––––––––––––––––
Analyzed: ORF Vienna Radio Symphony Orchestra & Gregor Bühl / Braunfels: Orchestral Works
––––––––––––––––––––––––––––––––––––––––

DR Peak RMS Duration Track
––––––––––––––––––––––––––––––––––––––––
DR13 0.00 dB -17.72 dB 6:07 01-Braunfels: Don Gil von den grünen Hosen, Op. 35: Prelude
DR11 -3.45 dB -19.17 dB 3:20 02-Braunfels: Divertimento, Op. 42: I. Mäßig bewegt
DR13 -1.00 dB -18.99 dB 3:15 03-Braunfels: Divertimento, Op. 42: II. Gemessen, doch immer bewegt
DR12 -3.43 dB -21.59 dB 5:44 04-Braunfels: Divertimento, Op. 42: III. Langsam
DR12 -5.50 dB -22.64 dB 3:56 05-Braunfels: Divertimento, Op. 42: IV. Zeitmaß der Sarabande
DR12 -1.00 dB -17.89 dB 3:52 06-Braunfels: Divertimento, Op. 42: V. Sehr lebhaft
DR13 -6.87 dB -26.72 dB 8:32 07-Braunfels: Ariels Gesang, Op. 18
DR13 -1.31 dB -20.78 dB 8:17 08-Braunfels: Serenade in E-Flat Major, Op. 20: I. Leicht bewegt
DR12 -1.00 dB -18.02 dB 3:19 09-Braunfels: Serenade in E-Flat Major, Op. 20: II. Lebhaft, ausgelassen
DR13 -2.89 dB -22.21 dB 8:41 10-Braunfels: Serenade in E-Flat Major, Op. 20: III. Ruhig
DR12 -1.00 dB -17.02 dB 4:03 11-Braunfels: Serenade in E-Flat Major, Op. 20: IV. Die Achtel fast so rasch wie bisher
––––––––––––––––––––––––––––––––––––––––

Number of tracks: 11
Official DR value: DR12

Samplerate: 96000 Hz
Channels: 2
Bits per sample: 24
Bitrate: 2555 kbps
Codec: FLAC
================================================================================



Thanks to the Original customer.