Olga Scheps - Tchaikovsky (2017) [Official Digital Download]

Posted By: SERTiL
Olga Scheps - Tchaikovsky (2017) [Official Digital Download]

Olga Scheps - Tchaikovsky (2017)
FLAC (tracks) 24-bit/48 kHz | Time - 70:50 minutes | 587 MB
Studio Master, Official Digital Download | Artwork: Digital booklet

In the Satie Jubilee Year, the Echo-Klassik-Prize-winner Olga Scheps succeeded in making a real coup. The highly praised Satie album captured the first place on the German classical charts. On her new album, the pianist, born in Russia and grown up in Cologne, presents Tchaikovsky's music, which is almost in her blood. She has recorded the famous first piano concerto with the WDR Symphony Orchestra under the young Spanish conductor Carlos Dominguez-Nieto. It complements this recording with solo works such as the popular Nutcracker Suite in the original and pianistically challenging adaptation for solo piano by Mikhail Pletnev as well as the famous "Chanson triste" and the months of October and November from the cycle "Die Jahreszeiten".

Tracklist:

Pyotr Ilyich Tchaikovsky (1840-1893)

01. Piano Concerto No. 1 in B-Flat Minor, Op. 23: I. Allegro non troppo e molto maestoso
02. Piano Concerto No. 1 in B-Flat Minor, Op. 23: II. Andantino semplice
03. Piano Concerto No. 1 in B-Flat Minor, Op. 23: III. Allegro con fuoco
04. The Seasons, Op. 37a: XI. November. On the Troika
05. The Seasons, Op. 37a: XII. December. Christmas
06. Chanson triste, Op. 40, No. 2
07. Concert Suite from The Nutcracker, Op. 71: I. March
08. Concert Suite from The Nutcracker, Op. 71: II. Dance of the Sugar Plum Fairy
09. Concert Suite from The Nutcracker, Op. 71: III. Tarantella
10. Concert Suite from The Nutcracker, Op. 71: IV. Intermezzo
11. Concert Suite from The Nutcracker, Op. 71: V. Trepak
12. Concert Suite from The Nutcracker, Op. 71: VI. Chinese Dance
13. Concert Suite from The Nutcracker, Op. 71: VII. Pas de Deux

Personnel:
Olga Scheps (piano)
WDR Sinfonieorchester Köln
Carlos Dominguez-Nieto (conductor)

foobar2000 1.3.7 / Dynamic Range Meter 1.1.1
log date: 2017-10-26 13:03:45

––––––––––––––––––––––––––––––––––––––––
Analyzed: Olga Scheps / Tchaikovsky
––––––––––––––––––––––––––––––––––––––––

DR Peak RMS Duration Track
––––––––––––––––––––––––––––––––––––––––
DR15 -0.32 dB -21.32 dB 23:03 01-Piano Concerto No. 1 in B-Flat Minor, Op. 23: I. Allegro non troppo e molto maestoso
DR16 -2.60 dB -28.92 dB 7:41 02-Piano Concerto No. 1 in B-Flat Minor, Op. 23: II. Andantino semplice
DR13 -0.32 dB -18.83 dB 7:23 03-Piano Concerto No. 1 in B-Flat Minor, Op. 23: III. Allegro con fuoco
DR14 -13.41 dB -34.35 dB 5:15 04-The Seasons, Op. 37a: XI. November. On the Troika
DR15 -7.28 dB -26.96 dB 3:01 05-The Seasons, Op. 37a: XII. December. Christmas
DR15 -16.09 dB -36.04 dB 4:35 06-Chanson triste, Op. 40, No. 2
DR12 -6.02 dB -23.04 dB 2:04 07-Concert Suite from The Nutcracker, Op. 71: I. March
DR15 -6.33 dB -29.92 dB 1:53 08-Concert Suite from The Nutcracker, Op. 71: II. Dance of the Sugar Plum Fairy
DR11 -2.77 dB -19.92 dB 1:28 09-Concert Suite from The Nutcracker, Op. 71: III. Tarantella
DR14 -2.72 dB -23.55 dB 5:21 10-Concert Suite from The Nutcracker, Op. 71: IV. Intermezzo
DR11 -4.88 dB -20.41 dB 1:16 11-Concert Suite from The Nutcracker, Op. 71: V. Trepak
DR15 -7.88 dB -27.23 dB 1:35 12-Concert Suite from The Nutcracker, Op. 71: VI. Chinese Dance
DR13 -1.91 dB -21.39 dB 6:22 13-Concert Suite from The Nutcracker, Op. 71: VII. Pas de Deux
––––––––––––––––––––––––––––––––––––––––

Number of tracks: 13
Official DR value: DR14

Samplerate: 48000 Hz
Channels: 2
Bits per sample: 24
Bitrate: 1102 kbps
Codec: FLAC
================================================================================


Thanks to the Original customer.