Anima Eterna Brugge & Jos van Immerseel - Orff: Carmina Burana (Cantiones profanae) (2014) [Official Digital Download 24/96]

Posted By: SERTiL
Anima Eterna Brugge & Jos van Immerseel - Orff: Carmina Burana (Cantiones profanae) (2014) [Official Digital Download 24/96]

Anima Eterna Brugge & Jos van Immerseel - Orff: Carmina Burana (Cantiones profanae) (2014)
FLAC (tracks) 24-bit/96 kHz | Time - 63:26 minutes | 1.13 GB
Studio Master, Official Digital Download | Artwork: Digital booklet

Often described as ‘music for amateurs’, sometimes used (or misused) towards purely commercial ends, Orff’s Carmina Burana was clearly ready for a new approach, a sort of revivifying, thorough rethinking. This has now been done, thanks to Jos van Immerseel and the absolutely exceptional musical team that he assembled.

Faithful to what accounts for the force of his musical approach, Jos van Immerseel profoundly revolutionizes the sound image and interpretation of this score, thanks both to the very high quality of the chosen performers and to the singularity of the instruments and timbres of his orchestra.

So it is a very new way of approaching this work that Jos van Immerseel proposes, open-minded, without concession but with the great pleasure and joy of simply making music.

TRACKLIST

Carl Orff (1895-1982)

Fortuna Imperatrix Mundi
01. "O Fortuna" (2:36)
02. "Fortune plango vulnera" (2:52)

I. Primo Vere
03. "Veris leta facies" (4:33)
04. "Omnia sol temperat" (2:22)
05. "Ecce gratum" (2:57)

Uf dem Anger
06. Tanz (1:38)
07. "Floret silva nobilis" (3:36)
08. "Chramer, gip die varwe mir" (3:36)
09. Reie (4:51)
10. "Were diu werlt alle min" (1:01)

II. In Taberna
11. "Estuans interius" (2:28)
12. "Olim lacus colueram" (3:42)
13. "Ego sum abbas" (1:41)
14. "In taberna quando sumus" (3:11)

III. Cours d'amours
15. "Amor volat undique" (3:25)
16. "Dies, nox et omnia" (2:25)
17. "Stetit puella" (2:16)
18. "Circa mea pectora" (2:02)
19. "Si puer cum puellula" (1:05)
20. "Veni, veni, venias" (1:03)
21. "In trutina" (2:22)
22. "Tempus est iocundum" (2:38)
23. "Dulcissime" (0:54)

Blanzifor et Helena
24. "Ave formosissima" (1:41)

Fortuna Imperatrix Mundi
25. "O Fortuna" (2:42)

PERSONNEL
Yeree Suh, soprano
Yves Saelens, tenor
Thomas Bauer, baritone
Anima Eterna Brugge
Collegium Vocale Gent
Cantate Domino
Jos van Immerseel, conductor

Recorded: Concertgebouw Brugge, 19-20 February 2014

foobar2000 1.3.7 / Dynamic Range Meter 1.1.1
log date: 2017-04-20 12:47:15

––––––––––––––––––––––––––––––––––––––––
Analyzed: Anima Eterna Brugge, Jos van Immerseel / Orff: Carmina Burana (Cantiones profanae) (1)
Collegium Vocale Gent; Cantate Domino; Anima Eterna Brugge; Jos van Immerseel / Orff: Carmina Burana (Cantiones profanae) (2-13)
Collegium Vocale Gent; Cantate Domino / Orff: Carmina Burana (Cantiones profanae) (14)
Thomas E. Bauer; Anima Eterna Brugge; Jos van Immerseel / Orff: Carmina Burana (Cantiones profanae) (15-17)
Thomas E. Bauer; Collegium Vocale Gent; Cantate Domino; Anima Eterna Brugge; Jos van Immerseel / Orff: Carmina Burana (Cantiones profanae) (18-19)
Yeree Suh; Anima Eterna Brugge; Jos van Immerseel / Orff: Carmina Burana (Cantiones profanae) (20-22)
Yeree Suh; Thomas E. Bauer; Collegium Vocale Gent; Cantate Domino; Anima Eterna Brugge; Jos van Immerseel / Orff: Carmina Burana (Cantiones profanae) (23)
Yves Saelens; Collegium Vocale Gent; Cantate Domino; Anima Eterna Brugge; Jos van Immerseel / Orff: Carmina Burana (Cantiones profanae) (24)
Yves Saelens; Collegium Vocale Gent; Cantate Domino; / Orff: Carmina Burana (Cantiones profanae) (25)
––––––––––––––––––––––––––––––––––––––––

DR Peak RMS Duration Track
––––––––––––––––––––––––––––––––––––––––
DR15 -0.43 dB -22.08 dB 1:38 06-Carmina Burana: Uf dem Anger, Tanz
DR12 -0.10 dB -16.42 dB 2:36 01-Carmina Burana: Fortuna Imperatrix Mundi, "O Fortuna"
DR14 -1.38 dB -22.12 dB 2:52 02-Carmina Burana: Fortuna Imperatrix Mundi, "Fortune plango vulnera"
DR17 -11.64 dB -35.41 dB 4:33 03-Carmina Burana: I. Primo Vere, "Veris leta facies"
DR13 -0.10 dB -19.10 dB 2:57 05-Carmina Burana: I. Primo Vere, "Ecce gratum"
DR14 -7.25 dB -27.29 dB 3:36 07-Carmina Burana: Uf dem Anger, "Floret silva nobilis"
DR14 -15.52 dB -33.90 dB 3:36 08-Carmina Burana: Uf dem Anger, "Chramer, gip die varwe mir"
DR15 -0.42 dB -23.37 dB 4:51 09-Carmina Burana: Uf dem Anger, Reie
DR12 -0.10 dB -16.94 dB 1:01 10-Carmina Burana: Uf dem Anger, "Were diu werlt alle min"
DR14 -0.10 dB -19.26 dB 3:11 14-Carmina Burana: II. In Taberna, "In taberna quando sumus"
DR13 -0.80 dB -21.46 dB 1:03 20-Carmina Burana: III. Cours d'amours, "Veni, veni, venias"
DR11 -0.10 dB -13.43 dB 1:41 24-Carmina Burana: Blanzifor et Helena, "Ave formosissima"
DR11 -0.10 dB -16.17 dB 2:42 25-Carmina Burana: Fortuna Imperatrix Mundi, "O Fortuna"
DR14 -14.38 dB -35.12 dB 1:05 19-Carmina Burana: III. Cours d'amours, "Si puer cum puellula"
DR14 -19.59 dB -40.01 dB 2:22 04-Carmina Burana: I. Primo Vere, "Omnia sol temperat"
DR17 -0.10 dB -24.65 dB 2:28 11-Carmina Burana: II. In Taberna, "Estuans interius"
DR13 -18.56 dB -37.18 dB 2:25 16-Carmina Burana: III. Cours d'amours, "Dies, nox et omnia"
DR14 -0.10 dB -21.15 dB 1:41 13-Carmina Burana: II. In Taberna, "Ego sum abbas"
DR15 -2.05 dB -22.85 dB 2:02 18-Carmina Burana: III. Cours d'amours, "Circa mea pectora"
DR10 -14.87 dB -30.62 dB 2:16 17-Carmina Burana: III. Cours d'amours, "Stetit puella"
DR12 -21.55 dB -38.91 dB 2:22 21-Carmina Burana: III. Cours d'amours, "In trutina"
DR8 -15.74 dB -30.70 dB 0:54 23-Carmina Burana: III. Cours d'amours, "Dulcissime"
DR13 -2.27 dB -22.04 dB 2:38 22-Carmina Burana: III. Cours d'amours, "Tempus est iocundum"
DR16 -3.95 dB -27.95 dB 3:42 12-Carmina Burana: II. In Taberna, "Olim lacus colueram"
DR13 -18.38 dB -38.45 dB 3:25 15-Carmina Burana: III. Cours d'amours, "Amor volat undique"
––––––––––––––––––––––––––––––––––––––––

Number of tracks: 25
Official DR value: DR13

Samplerate: 96000 Hz
Channels: 2
Bits per sample: 24
Bitrate: 2354 kbps
Codec: FLAC
================================================================================


Thanks to the Original customer.