Thomas Hobbs, Romina Lischka & Sofie Vanden Eynde - Orpheus' Noble Strings (2016) [Official Digital Download 24/96]

Posted By: SERTiL
Thomas Hobbs, Romina Lischka & Sofie Vanden Eynde - Orpheus' Noble Strings (2016) [Official Digital Download 24/96]

Thomas Hobbs, Romina Lischka & Sofie Vanden Eynde - Orpheus' Noble Strings (2016)
FLAC (tracks) 24-bit/96 kHz | Time - 63:57 minutes | 1.17 GB
Studio Master, Official Digital Download | Artwork: Digital Booklet

Orpheus and his lyre: how to better picture the power of music? Orpheus could move stones to tears, he even moved to pity the gates of death. Music overturns the world, this the composers of the English Renaissance knew very well. Even more, music is the soul of the world, a unifying force. Thomas Hobbs celebrates the many facets of music in lutesongs, in particular those of by T. Campion and J. Danyel. It is not solely the lute which accompanies the song, but also less frequently heard instruments such as the lyra viol, the bandora, the orpharion. With their generous strings, these instruments bring to the ears the sound of Orpheus' magical lyre.

Tracklist:
01. Rest, sweet Nymphs
02. Prelude
03. Music dear solace
04. Come live with me, and be my love
05. Time, cruel Time
06. Almaine
07. Truth, trying Time
08. Like as the lute delights
09. Pavin
10. Come away, come, sweet love
11. Can doleful notes
12. No let chromatic tunes
13. Uncertain certain turns
14. Prelude
15. Mounsiers Almaine
16. Coranto
17. The virgines muse
18. Cease leaden slumber
19. Musickes delight
20. Prelude
21. To music bent is my retired mind
22. What greater grief
23. Mr. Dowland's Midnight
24. Go nightly cares
25. Down, down, proud minde

Composers:
Campion, Thomas (1567-1620)
Corkine, William (fl.1610-17)
Danyel, John (1564-c.1626)
Dowland, John (1563-1626)
Ferrabosco, Alfonso (1543-88)
Holborne, Antony (?1545-1602)
Hume, Tobias (c.1579-1645)
Pilkington, Francis (c.1570-1638)

Personnel:
Thomas Hobbs, tenor
Romina Lischka, viola da gamba and lyra viol
Sofie Vanden Eynde, lute
Orpheus' Noble Strings

foobar2000 1.3.7 / Dynamic Range Meter 1.1.1
log date: 2018-04-07 21:27:48

––––––––––––––––––––––––––––––––––––––––
Analyzed: Romina Lischka and Sofie Vanden Eynde / Orpheus' Noble Strings (1-2)
Romina Lischka / Orpheus' Noble Strings (3-7)
Sofie Vanden Eynde / Orpheus' Noble Strings (8-11)
Thomas Hobbs and Romina Lischka / Orpheus' Noble Strings (12-13)
Thomas Hobbs and Sofie Vanden Eynde / Orpheus' Noble Strings (14-15)
Thomas Hobbs, Romina Lischka and Sofie Vanden Eynde / Orpheus' Noble Strings (16-19)
Thomas Hobbs, Sofie Vanden Eynand Romina Lischka / Orpheus' Noble Strings (20-25)
––––––––––––––––––––––––––––––––––––––––

DR Peak RMS Duration Track
––––––––––––––––––––––––––––––––––––––––
DR11 -6.13 dB -20.94 dB 2:32 17-The virgines muse
DR11 -4.61 dB -19.24 dB 2:01 19-Musickes delight
DR13 -4.66 dB -21.24 dB 4:06 04-Come live with me, and be my love
DR12 -3.54 dB -18.27 dB 2:17 06-Almaine
DR10 -6.03 dB -19.76 dB 1:54 14-Prelude
DR10 -5.48 dB -19.12 dB 2:52 15-Mounsiers Almaine
DR10 -6.46 dB -21.21 dB 1:44 16-Coranto
DR13 -7.93 dB -23.82 dB 1:11 02-Prelude
DR14 -9.83 dB -26.47 dB 3:49 09-Pavin
DR13 -7.16 dB -25.51 dB 0:58 20-Prelude
DR14 -10.09 dB -27.97 dB 1:01 23-Mr. Dowland's Midnight
DR12 -1.00 dB -17.49 dB 3:27 22-What greater grief
DR12 0.00 dB -16.60 dB 2:52 25-Down, down, proud minde
DR13 -0.69 dB -19.91 dB 2:18 10-Come away, come, sweet love
DR13 -6.24 dB -23.64 dB 3:17 21-To music bent is my retired mind
DR13 -2.20 dB -19.34 dB 4:23 01-Rest, sweet Nymphs
DR12 -3.50 dB -18.78 dB 2:30 05-Time, cruel Time
DR12 -3.34 dB -19.98 dB 2:00 11-Can doleful notes
DR12 -2.14 dB -18.72 dB 1:19 18-Cease leaden slumber
DR13 -0.07 dB -16.99 dB 4:24 03-Music dear solace
DR12 -0.07 dB -15.66 dB 1:42 07-Truth, trying Time
DR13 -1.22 dB -19.12 dB 3:36 08-Like as the lute delights
DR11 -2.24 dB -17.65 dB 2:43 12-No let chromatic tunes
DR13 -2.14 dB -18.81 dB 1:30 13-Uncertain certain turns
DR13 -3.01 dB -21.49 dB 3:45 24-Go nightly cares
––––––––––––––––––––––––––––––––––––––––

Number of tracks: 25
Official DR value: DR12

Samplerate: 96000 Hz
Channels: 2
Bits per sample: 24
Bitrate: 2547 kbps
Codec: FLAC
================================================================================


Thanks to the Original customer.