Choir of Clare College, Cambridge & Graham Ross - Pange Lingua: Music for Corpus Christi (2017) [24/96]

Posted By: SERTiL
Choir of Clare College, Cambridge & Graham Ross - Pange Lingua: Music for Corpus Christi (2017) [24/96]

Choir of Clare College, Cambridge & Graham Ross - Pange Lingua: Music for Corpus Christi (2017)
FLAC (tracks) 24-bit/96 kHz | Time - 78:18 minutes | 1.27 GB
Studio Master, Official Digital Download | Artwork: Digital booklet

Graham Ross directs the Choir of Clare College, Cambridge in a sequence for Corpus Christi, one of the most important feasts in the liturgical calendar. Thomas Aquinas's celebrated Eucharistic hymns appear in settings from the 16th, 20th and 21st centuries, framed by two masterpieces celebrating the Holy Communion: masterpieces celebrating the Holy Communion: Josquin's Missa Pange Lingua and Finzi's extended anthem, Lo, the full, final Sacrifice.

TRACKLIST

Anonymous

1 Pange lingua gloriosi (Plain-chant) 02:17

JOSQUIN DESPREZ (c. 1440/55-1521)

Missa Pange Lingua
2 I. Kyrie 03:00
3 II. Gloria 04:17
4 III. Credo 07:10
5 IV. Sanctus - Benedictus 08:08
6 V. Agnus Dei 07:12

TOMÁS LUIS DE VICTORIA (c. 1548-1611)

7 Lauda Sion salvatorem 02:29

PIERRE DE LA RUE (c. 1452-1518)

8 O salutaris hostia 03:08

WILLIAM BYRD (c. 1539/40-1623)

9 Gradualia ac cantiones sacrae, Liber 1: XXXIII. Cibavit eos 02:55

EDWARD BAIRSTOW (1874-1946)

10 Let all mortal flesh keep silence 03:45

PIERRE VILLETTE (1926-1998)

11 O sacrum convivium 03:40

OLIVIER MESSIAEN (1908-1992)

12 O sacrum convivium [2] 04:54

FRANCIS GRIER (b. 1955)

13 Panis angelicus 03:30

GRAHAM ROSS (b. 1985)

14 Ave verum corpus 03:58

GERALD FINZI (1901-1956)

15 Lo, the full, final Sacrifice 14:49
16 Ave verum corpus, K. 618 (Bonus Track) 03:06

PERSONNEL
Choir of Clare College Cambridge
Graham Ross, direction

foobar2000 1.3.7 / Dynamic Range Meter 1.1.1
log date: 2017-09-17 15:10:37

––––––––––––––––––––––––––––––––––––––––
Analyzed: Choir of Clare College, Cambridge and Graham Ross / Pange Lingua: Music for Corpus Christi (Bonus Track Version) (1-7)
Choir of Clare College, Cambridge, Alexander Porteous, Graham Ross and Joshua Pacey / Pange Lingua: Music for Corpus Christi (Bonus Track Version) (8)
Choir of Clare College, Cambridge, Alice Halstead and Graham Ross / Pange Lingua: Music for Corpus Christi (Bonus Track Version) (9)
Choir of Clare College, Cambridge, Alice Halstead, Graham Ross, Joshua Pacey and Laurence Booth-Clibborn / Pange Lingua: Music for Corpus Christi (Bonus Track Version) (10)
Choir of Clare College, Cambridge, Graham Ross and Laurence Harris / Pange Lingua: Music for Corpus Christi (Bonus Track Version) (11)
Choir of Clare College, Cambridge, Graham Ross, Helena Cooke and Caroline Meinhardt / Pange Lingua: Music for Corpus Christi (Bonus Track Version) (12)
Choir of Clare College, Cambridge, Graham Ross, Henrietta Box, Sophie Woodhead, Laurence Booth-Clibborn and Laurence Harris / Pange Lingua: Music for Corpus Christi (Bonus Track Version) (13)
Choir of Clare College, Cambridge, Joshua Pacey, Graham Ross, Alexander Porteous, Caroline Meinhardt and Helena Cooke / Pange Lingua: Music for Corpus Christi (Bonus Track Version) (14)
Choir of Clare College, Cambridge, Laurence Booth-Clibborn, Alice Halstead and Graham Ross / Pange Lingua: Music for Corpus Christi (Bonus Track Version) (15)
Choir of Clare College, Cambridge, Laurence Booth-Clibborn, Joshua Pacey, Catherine Clark, Alice Halstead and Graham Ross / Pange Lingua: Music for Corpus Christi (Bonus Track Version) (16)
––––––––––––––––––––––––––––––––––––––––

DR Peak RMS Duration Track
––––––––––––––––––––––––––––––––––––––––
DR11 -5.14 dB -21.24 dB 2:29 07-Lauda Sion salvatorem
DR11 -12.58 dB -28.25 dB 3:08 08-O salutaris hostia
DR11 -5.09 dB -22.64 dB 2:56 09-Gradualia Ac Cantiones Sacrae, Liber 1: Xxxiii. Cibavit Eos
DR11 -2.82 dB -19.94 dB 3:40 11-O sacrum convivium
DR14 -1.82 dB -24.71 dB 4:54 12-O sacrum convivium [2]
DR13 -1.53 dB -22.56 dB 3:58 14-Ave verum corpus
DR13 -4.35 dB -24.77 dB 3:07 16-Ave verum corpus, K. 618 (Bonus Track)
DR14 -0.93 dB -21.71 dB 3:45 10-Let all mortal flesh keep silence
DR14 -8.86 dB -27.66 dB 2:17 01-Pange lingua gloriosi (Plain-chant)
DR15 -0.19 dB -21.41 dB 14:50 15-Lo, the full, final Sacrifice
DR12 -6.78 dB -23.51 dB 7:11 04-Missa Pange Lingua: III. Credo
DR12 -9.85 dB -27.07 dB 7:13 06-Missa Pange Lingua: V. Agnus Dei
DR12 -4.62 dB -23.54 dB 4:18 03-Missa Pange Lingua: II. Gloria
DR11 -9.86 dB -26.15 dB 3:00 02-Missa Pange Lingua: I. Kyrie
DR13 -9.22 dB -28.54 dB 3:30 13-Panis angelicus
DR14 -5.03 dB -24.46 dB 8:08 05-Missa Pange Lingua: IV. Sanctus-Benedictus
––––––––––––––––––––––––––––––––––––––––

Number of tracks: 16
Official DR value: DR13

Samplerate: 96000 Hz
Channels: 2
Bits per sample: 24
Bitrate: 2337 kbps
Codec: FLAC
================================================================================


Thanks to the Original customer.