Emmylou Harris - Producer's Cut (2002/2012) [Official Digital Download 24/96]

Posted By: SERTiL
Emmylou Harris - Producer's Cut (2002/2012) [Official Digital Download 24/96]

Emmylou Harris - Producer's Cut (2002/2012)
FLAC (tracks) 24-bit/96 kHz | Time - 55:32 minutes | 1.02 GB
Studio Master, Official Digital Download | Artwork: Front Cover

Emmylou Harris has proved to be one of the most influential female performers in country music, respected and admired by rock, folk, and country audiences. She made her debut in 1975 with the album „Pieces Of The Sky“ after initially rising to prominence performing with country-rock icon Gram Parsons.

„Producer's Cut“ is a compilation culled from seven of Emmylou's albums for the Reprise label. Songs include "Boulder to Birmingham," "Too Far Gone," "Together Again," "Sorrow In The Wind," and a previously unreleased track with Johnny Cash, "Old Rugged Cross."

„Rhino Records asked producer Brian Ahern to select his favorite tracks from the Emmylou Harris albums he helmed – he produced her first 11 studio offerings for Reprise Records. That's quite a daunting task when you consider that some of those recordings were Elite Hotel, Luxury Liner, Quarter Moon in a Ten Cent Town, and Pieces of the Sky, just to name a few. But Ahern rose to the task and put together a solid, aesthetically perfect set here, highlighting many different aspects of Harris' career at the time: from her trademark, utterly pure singing voice, to her song selection, to the sound of her band and the studio she recorded in, this is a top-notch set from start to finish and serves as an excellent introduction to her early work for the newcomer.“ (Thom Jurek, AMG)

Tracklist:
01. If I Could Only Win Your Love
02. Boulder To Birmingham
03. One Of These Days
04. Too Far Gone
05. Leaving Louisiana In The Broad Daylight
06. Together Again
07. Tulsa Queen
08. Pancho & Lefty
09. Spanish Johnny
10. Beneath Still Waters
11. Even Cowgirls Get The Blues
12. The Last Cheaters Waltz
13. Sorrow In The Wind
14. Old Rugged Cross

Digitally remastered

foobar2000 1.3.7 / Dynamic Range Meter 1.1.1
log date: 2018-01-29 15:50:26

––––––––––––––––––––––––––––––––––––––––
Analyzed: Emmylou Harris / Producer's Cut
––––––––––––––––––––––––––––––––––––––––

DR Peak RMS Duration Track
––––––––––––––––––––––––––––––––––––––––
DR12 -3.07 dB -18.02 dB 2:37 01-If I Could Only Win Your Love
DR11 -4.09 dB -19.09 dB 3:36 02-Boulder To Birmingham
DR10 -3.29 dB -16.72 dB 3:04 03-One Of These Days
DR9 -3.47 dB -17.29 dB 4:07 04-Too Far Gone
DR15 -2.97 dB -20.01 dB 4:20 05-Leaving Louisiana In The Broad Daylight
DR12 -4.07 dB -19.44 dB 3:55 06-Together Again
DR12 -3.78 dB -18.88 dB 4:39 07-Tulsa Queen
DR11 -3.59 dB -18.50 dB 4:54 08-Pancho & Lefty
DR12 -2.96 dB -19.64 dB 3:54 09-Spanish Johnny
DR12 -4.16 dB -18.88 dB 3:47 10-Beneath Still Waters
DR12 -3.88 dB -18.70 dB 3:59 11-Even Cowgirls Get The Blues
DR11 -3.41 dB -18.71 dB 5:42 12-The Last Cheaters Waltz
DR12 -5.24 dB -21.57 dB 3:31 13-Sorrow In The Wind
DR14 -5.09 dB -21.54 dB 3:32 14-Old Rugged Cross
––––––––––––––––––––––––––––––––––––––––

Number of tracks: 14
Official DR value: DR12

Samplerate: 96000 Hz
Channels: 2
Bits per sample: 24
Bitrate: 2566 kbps
Codec: FLAC
================================================================================


Thanks to the Original customer.