Quatuor Voce - Mozart & Schubert: Quartets Nos. 15 (2019) [Official Digital Download 24/192]

Posted By: SERTiL
Quatuor Voce - Mozart & Schubert: Quartets Nos. 15 (2019) [Official Digital Download 24/192]

Quatuor Voce - Mozart & Schubert: Quartets Nos. 15 (2019)
FLAC (tracks) 24-bit/192 kHz | Time - 66:37 minutes | 2.11 GB
Studio Master, Official Digital Download | Artwork: Digital Booklet

The Quatuor Voce is fifteen years old! To celebrate this anniversary, the four musicians present a CD focusing on two composers, Mozart and Schubert, but only one number: 15! This milestone, an age imbued with both ardour and maturity, is therefore embodied in the respective fifteenth quartets of these two geniuses of the eighteenth and nineteenth centuries. Mozart composed his Quartet No. 15 in 1783, as the second in the set of six quartets dedicated to Haydn. Schubert wrote his Quartet No. 15, his last work in the genre, in 1826. He composed it in only ten days but did not live to hear its first performance, which took place twenty-three years after his death.

Tracklist:
1. String Quartet No. 15 in D Minor, K. 421/417b: I. Allegro moderato (08:05)
2. String Quartet No. 15 in D Minor, K. 421/417b: II. Andante (05:37)
3. String Quartet No. 15 in D Minor, K. 421/417b: III. Menuetto and Trio (Allegretto) (03:39)
4. String Quartet No. 15 in D Minor, K. 421/417b: IV. Allegretto ma non troppo (07:06)
5. String Quartet No. 15 in G Major, D. 887: I. Allegro molto moderato (14:53)
6. String Quartet No. 15 in G Major, D. 887: II. Andante un poco moto (10:48)
7. String Quartet No. 15 in G Major, D. 887: III. Scherzo. Allegro vivace - Trio (Allegretto) (05:53)
8. String Quartet No. 15 in G Major, D. 887: IV. Allegro assai (10:36)

foobar2000 1.3.7 / Dynamic Range Meter 1.1.1
log date: 2019-09-06 13:32:29

––––––––––––––––––––––––––––––––––––––––
Analyzed: Quatuor Voce / Mozart & Schubert: Quartets Nos. 15
––––––––––––––––––––––––––––––––––––––––

DR Peak RMS Duration Track
––––––––––––––––––––––––––––––––––––––––
DR14 -2.90 dB -21.23 dB 8:05 01-I. Allegro moderato
DR13 -3.70 dB -23.47 dB 5:37 02-II. Andante
DR12 -2.44 dB -21.40 dB 3:39 03-III. Menuetto and Trio (Allegretto)
DR13 -4.61 dB -21.63 dB 7:07 04-IV. Allegretto ma non troppo
DR13 -0.10 dB -19.02 dB 14:53 05-I. Allegro molto moderato
DR14 -0.16 dB -20.09 dB 10:49 06-II. Andante un poco moto
DR14 -2.52 dB -22.32 dB 5:54 07-III. Scherzo. Allegro vivace - Trio (Allegretto)
DR13 -0.86 dB -19.28 dB 10:36 08-IV. Allegro assai
––––––––––––––––––––––––––––––––––––––––

Number of tracks: 8
Official DR value: DR13

Samplerate: 192000 Hz
Channels: 2
Bits per sample: 24
Bitrate: 4632 kbps
Codec: FLAC
================================================================================


Thanks to the Original customer.