Subcategories

Quentin Angus - In Stride (2017) [Official Digital Download 24/96]

Posted By: Pisulik
Quentin Angus - In Stride (2017) [Official Digital Download 24/96]

Quentin Angus - In Stride (2017)
FLAC (tracks) 24-bit/96 kHz | Time - 44:45 minutes | 851 MB
Studio Master, Official Digital Download | Artwork: Front cover

Quentin Angus was described by critics as "Lord of the strings"– The Age (Michael Dwyer), "The Future of Jazz Composition"– Paul Williams (ASCAP), and "Exuberant, richly melodic and smartly arranged"– Richard Kamins (Culture Creature), Angus has been leaving audiences in awe around the world with performances in Holland, Belgium, Romania, Switzerland, Turkey, New Zealand, Australia and the United States. This includes appearances at the 'Montreux International Jazz Festival' (Switzerland), 'HOOT International Jazz Festival' (Australia), and 'Jazz Hoeilaart Festival' (Belgium), along with the release of two critically acclaimed albums as a band leader, 'Retrieval Structure' (2011), described as "fresh, sophisticated, vibrant and formidable"– All About Jazz (Edward Blanco), and 'Perception' (2013), described as "A truly special and essential recording".

Tracklist:

01. Jingles
02. Iris
03. In Stride
04. One for Bernie
05. Segment
06. Droplets
07. Wonderwall
08. Kinship

Personnel:

Quentin Angus - guitar
Sam Anning - bass
Ari Hoenig - drums

foobar2000 1.3.7 / Dynamic Range Meter 1.1.1
log date: 2017-11-24 10:18:05

––––––––––––––––––––––––––––––––––––––––
Analyzed: Quentin Angus / In Stride
––––––––––––––––––––––––––––––––––––––––

DR Peak RMS Duration Track
––––––––––––––––––––––––––––––––––––––––
DR11 -1.00 dB -14.05 dB 6:24 01-Jingles
DR10 -1.00 dB -14.47 dB 4:30 02-Iris
DR9 -1.00 dB -12.91 dB 6:53 03-In Stride
DR10 -1.00 dB -13.57 dB 4:16 04-One for Bernie
DR10 -1.00 dB -13.49 dB 4:45 05-Segment
DR10 -1.00 dB -13.86 dB 7:26 06-Droplets
DR9 -1.00 dB -12.59 dB 4:31 07-Wonderwall
DR11 -1.00 dB -14.70 dB 6:00 08-Kinship
––––––––––––––––––––––––––––––––––––––––

Number of tracks: 8
Official DR value: DR10

Samplerate: 96000 Hz
Channels: 2
Bits per sample: 24
Bitrate: 2618 kbps
Codec: FLAC
================================================================================


All thanks go to the original releaser