Subcategories

Alexis Weissenberg, Herbert von Karajan - Rachmaninov: Piano Concerto No. 2; Franck: Symphonic Variations (1973/2012) [24/96]

Posted By: SERTiL
Alexis Weissenberg, Herbert von Karajan - Rachmaninov: Piano Concerto No. 2; Franck: Symphonic Variations (1973/2012) [24/96]

Alexis Weissenberg, Herbert von Karajan - Rachmaninov: Piano Concerto No. 2; Franck: Symphonic Variations (1973/2012)
FLAC (tracks) 24-bit/96 kHz | Time - 54:06 minutes | 1.03 GB
Studio Master, Official Digital Download | Artwork: Digital booklet

A recording made in September 1972 which has never ranked very highly by admirers of either artist, but i found much to enjoy here. Karajan never seemed particularly engaged as an accompanist for pianists - the main prosecution witness could be his dire conducting for Christoph Eschenbach's DG recording of Beethoven's First Concerto, but he was a firm admirer of Weissenberg and their collaboration works pretty well.

The first movement of the Rachmaninov is imposing in Weissenberg's hands, and Karajan goes along with him, drawing very powerful playing from the BPO at the climax, with powerful timpani strokes adding to the excitement. The tempo of the Adagio sostenuto is dangerously slow but the simple dedication of the soloist and Karajan's attention to detail reaps dividends - he and Wislocki for Richter are two of the few conductors to draw out the flute chording at the movement's climax. Beautiful string playing without blandness throughout, while the wind section are admirable in the Finale's opening pages. Here Weissenberg's penchant for aggressive and rather literal playing slightly undermines the Slavonic melancholy.

Sonically this is enjoyable, with a wide soundstage and greater refinement than previous incarnations, though some hiss is still audible. The only small snag is the slightly close balance, most noticeable during the Finale. The recording sounds best during the quieter passages so again the first two movements of the Rachmaninov fare best - the closeness of the sound and slight hardness of the piano tone are more evident in the Finale.

The decent but unremarkable performance of the Franck Symphonic Variations doesn't have the individuality of the main work. review by akiralx

TRACKLIST

Sergei Rachmaninoff (1873–1943)

Piano Concerto No. 2 In C Minor Op. 18
01 I. Moderato 11:59
02 II. Adagio sostenuto 14:28
03 III. Allegro scherzando 11:56

César Franck (1822–1890)

04 Symphonic Variations M. 46 15:45

PERSONNEL
Alexis Weissenberg (piano)
Berlin Philharmonic Orchestra
Herbert von Karajan (conductor)

foobar2000 1.3.7 / Dynamic Range Meter 1.1.1
log date: 2017-05-04 12:12:41

––––––––––––––––––––––––––––––––––––––––
Analyzed: Alexis Weissenberg/Berliner Philharmoniker/Herbert von Karajan / Rachmaninoff: Piano Concerto - Franck: Symphonic Variations (2011 - Remaster)
––––––––––––––––––––––––––––––––––––––––

DR Peak RMS Duration Track
––––––––––––––––––––––––––––––––––––––––
DR11 -0.38 dB -16.44 dB 11:59 01-I. Moderato
DR18 -0.40 dB -24.93 dB 14:28 02-II. Adagio sostenuto
DR9 -0.38 dB -14.39 dB 11:56 03-III. Allegro scherzando
DR11 -0.37 dB -16.71 dB 15:45 04-Symphonic Variations
––––––––––––––––––––––––––––––––––––––––

Number of tracks: 4
Official DR value: DR12

Samplerate: 96000 Hz
Channels: 2
Bits per sample: 24
Bitrate: 2734 kbps
Codec: FLAC
================================================================================


Alexis Weissenberg, Herbert von Karajan - Rachmaninov: Piano Concerto No. 2; Franck: Symphonic Variations (1973/2012) [24/96]


Thanks to the Original customer.