Luzerner Sinfonieorchester & James Gaffigan - Rihm: Symphonie "Nähe fern" (2013) [Official Digital Download 24/96]

Posted By: SERTiL
Luzerner Sinfonieorchester & James Gaffigan - Rihm: Symphonie "Nähe fern" (2013) [Official Digital Download 24/96]

Luzerner Sinfonieorchester & James Gaffigan - Rihm: Symphonie "Nähe fern" (2013)
FLAC (tracks) 24-bit/96 kHz | Time - 47:31 minutes | 821 MB
Studio Master, Official Digital Download | Artwork: Digital Booklet

If every work of art can be understood as the docile or rebellious descendant of dozens, indeed hundreds of other works of art, the immense majority of Wolfgang Rihm's compositions fully assume the heritage of the past. This is especially true of 'Nähe fern', whose title (‘Distant proximity') refers to his experience of the four symphonies of Brahms. Each of these pieces for orchestra is a homage profoundly linked with its model, yet at the same time constantly moves away from it. Commissioned by the Lucerne Sinfonieorchester 'Nähe fern' was premiered at the Lucerne Festival on 20th August 2012.

“there's considerable refinement in the playing and Gaffigan avoids drawing undue attention to Brahmsian references - letting them emerge without forcing the point, which was surely Rihm's intention…A thoroughly worthwhile release.” (International Record Review)

“The incalculably prolific Rihm has added another large, unusual opus to his oeuvre…Fragments of the canonical masterpieces tantalisingly punctuate these curious essayistic meditations that seem to combine a sort of brooding languor with a determined cutting edge.” (The Sunday Times)

Tracklist:

Wolfgang Rihm (1952)

Symphonie “Nähe fern”
01. Nähe fern I
02. Dämmrung senkte sich von oben
03. Nähe fern II
04. Nähe fern III
05. Nähe fern IV

Personnel:
Hans Christoph Begemann, baritone
Luzerner Sinfonieorchester
James Gaffigan, conductor

foobar2000 1.3.7 / Dynamic Range Meter 1.1.1
log date: 2017-12-06 18:57:14

––––––––––––––––––––––––––––––––––––––––
Analyzed: Luzerner Sinfonieorchester and James Gaffigan / Rihm: Symphonie "Nähe fern" (1-3)
Luzerner Sinfonieorchester, Hans Christoph Begemann and James Gaffigan / Rihm: Symphonie "Nähe fern" (4)
Luzerner Sinfonieorchester / Rihm: Symphonie "Nähe fern" (5)
––––––––––––––––––––––––––––––––––––––––

DR Peak RMS Duration Track
––––––––––––––––––––––––––––––––––––––––
DR16 -0.10 dB -22.79 dB 12:13 01-Nähe fern I
DR15 -0.10 dB -21.71 dB 10:54 03-Nähe fern II
DR15 -0.10 dB -20.61 dB 10:26 04-Nähe fern III
DR14 -11.14 dB -30.22 dB 3:48 02-Dämmrung senkte sich von oben
DR15 -0.16 dB -21.44 dB 10:13 05-Nähe fern IV
––––––––––––––––––––––––––––––––––––––––

Number of tracks: 5
Official DR value: DR15

Samplerate: 96000 Hz
Channels: 2
Bits per sample: 24
Bitrate: 2421 kbps
Codec: FLAC
================================================================================


Thanks to the Original customer.