Roberto Prosseda & Alessandra Ammara - Mendelssohn: Complete Works for Piano Four Hands and for Two Pianos (2015) [24/96]

Posted By: SERTiL
Roberto Prosseda & Alessandra Ammara - Mendelssohn: Complete Works for Piano Four Hands and for Two Pianos (2015) [24/96]

Roberto Prosseda & Alessandra Ammara - Mendelssohn: Complete Works for Piano Four Hands and for Two Pianos (2015)
FLAC (tracks) 24-bit/96 kHz | Time - 76:36 minutes | 1.26 GB
Studio Master, Official Digital Download | Artwork: Front Cover

Is there another single-disc recording of all five of the complete original pieces composed by Mendelssohn for piano duet and two pianos? If so, I doubt if it’s as good as this with Roberto Prosseda, tireless champion of the composer, joined here by his wife Alessandra Ammara.

If in the Sonata in D major and the single sonata movement (aka Klavierstück) in G minor – both for two pianos – we do not hear the distinctive voice of the composer, then we should surely gasp in admiration that such music was composed by an 11-year-old. The sonata is clearly modelled on Mozart’s great K448 Sonata (in the same key) just as the Fantaisie in D minor for piano four hands (composed 1824 but published only in 2009) shares some characteristics (though not as obvious) with the Fantasy in D minor, K397; it has four linked sections lasting 13'19", making it, as Prosseda rightly asserts in the booklet, ‘one of the most interesting rediscoveries of Mendelssohn’s works that have been made in recent years’. In the next two pieces, the Duetto and Andante con variazioni (adapted from the Variations, Op 83, for solo piano) from 1840 and 1844 respectively, we have the echt Mendelssohn, glorious melodies and brilliant writing despatched con amore e con spirito by Ammara and Prosseda.

The disc ends with the composer’s own and rarely heard piano-duet arrangement of the incidental music for A Midsummer Night’s Dream, the six purely instrumental movements familiar from the orchestral suite. Good programming by the duo: the Overture (originally a piano duet written when he was just 17) reminds us again of Mendelssohn the youthful genius, while the rest of the suite, composed stylistically seamlessly 16 years later, is contemporaneous with the Andante con variazioni. Altogether a significant and rewarding addition to the Mendelssohn discography. ~ gramophone

Tracklist:
01. Mendelssohn: Sonata in D Major MWV S 1 (1820) for 2 Pianos-1. Allegro
02. Mendelssohn: Sonata in D Major MWV S 1 (1820) for 2 Pianos-2. Menuetto-Trio
03. Mendelssohn: Sonata in D Major MWV S 1 (1820) for 2 Pianos-3. Prestissimo
04. Mendelssohn: Klavierstück (Sonata Movement) in G Minor, MWV S 2 (1820) For 2 Pianos
05. Mendelssohn: Fantasie in D Minor MWV T 1 (1824) For 4 Hands-1. Adagio-Allegro
06. Mendelssohn: Fantasie in D Minor MWV T 1 (1824) For 4 Hands-2. Andante – Più Moto
07. Mendelssohn: Fantasie in D Minor MWV T 1 (1824) For 4 Hands-3. Allegro molto
08. Mendelssohn: Duetto (Allegro brillante) in A Major Op. 92 (1841), MWV T 4 For 4 Hands-1. Andante
09. Mendelssohn: Duetto (Allegro brillante) in A Major Op. 92 (1841), MWV T 4 For 4 Hands-2. Allegro assai vivace
10. Mendelssohn: Andante con Variazioni in B Flat Major Op. 83a (1844), MWV U 159 For 4 Hands
11. Mendelssohn: A Midsummer Night's Dream, Incidental Music, Op.61, MWV M 13-Arr. For Piano Duet-1. Overture
12. Mendelssohn: A Midsummer Night's Dream, Incidental Music, Op.61, MWV M 13-Arr. For Piano Duet-2. Scherzo
13. Mendelssohn: A Midsummer Night's Dream, Incidental Music, Op.61, MWV M 13-Arr. For Piano Duet-5. Intermezzo
14. Mendelssohn: A Midsummer Night's Dream, Incidental Music, Op.61, MWV M 13-Arr. For Piano Duet-6. Notturno
15. Mendelssohn: A Midsummer Night's Dream, Incidental Music, Op.61, MWV M 13-Arr. For Piano Duet-7. Wedding March

Personnel:
Roberto Prosseda (piano)
Alessandra Ammara (piano)

foobar2000 1.3.7 / Dynamic Range Meter 1.1.1
log date: 2018-01-04 17:27:55

––––––––––––––––––––––––––––––––––––––––
Analyzed: Alessandra Ammara and Roberto Prosseda / Mendelssohn: Complete Works for Piano Four Hands and for Two Pianos (1-6)
Roberto Prosseda & Alessandra Ammara / Mendelssohn: Complete Works for Piano Four Hands and for Two Pianos (7-15)
––––––––––––––––––––––––––––––––––––––––

DR Peak RMS Duration Track
––––––––––––––––––––––––––––––––––––––––
DR15 -3.34 dB -25.63 dB 5:54 01-Mendelssohn: Sonata in D Major MWV S 1 (1820) for 2 Pianos-1. Allegro
DR13 -2.96 dB -24.02 dB 3:12 03-Mendelssohn: Sonata in D Major MWV S 1 (1820) for 2 Pianos-3. Prestissimo
DR16 -1.97 dB -25.03 dB 3:33 04-Mendelssohn: Klavierstück (Sonata Movement) in G Minor, MWV S 2 (1820) For 2 Pianos
DR16 -2.61 dB -25.76 dB 4:27 06-Mendelssohn: Fantasie in D Minor MWV T 1 (1824) For 4 Hands-2. Andante – Più Moto
DR15 -1.86 dB -23.02 dB 10:58 10-Mendelssohn: Andante con Variazioni in B Flat Major Op. 83a (1844), MWV U 159 For 4 Hands
DR15 -0.01 dB -19.44 dB 4:37 15-Mendelssohn: A Midsummer Night's Dream, Incidental Music, Op.61, MWV M 13-Arr. For Piano Duet-7. Wedding March
DR15 -7.75 dB -28.86 dB 2:04 02-Mendelssohn: Sonata in D Major MWV S 1 (1820) for 2 Pianos-2. Menuetto-Trio
DR16 -2.08 dB -24.74 dB 5:33 05-Mendelssohn: Fantasie in D Minor MWV T 1 (1824) For 4 Hands-1. Adagio-Allegro
DR15 -2.15 dB -23.13 dB 3:19 07-Mendelssohn: Fantasie in D Minor MWV T 1 (1824) For 4 Hands-3. Allegro molto
DR12 -8.89 dB -26.81 dB 2:25 08-Mendelssohn: Duetto (Allegro brillante) in A Major Op. 92 (1841), MWV T 4 For 4 Hands-1. Andante
DR16 -2.07 dB -23.38 dB 7:33 09-Mendelssohn: Duetto (Allegro brillante) in A Major Op. 92 (1841), MWV T 4 For 4 Hands-2. Allegro assai vivace
DR15 -2.85 dB -23.97 dB 10:48 11-Mendelssohn: A Midsummer Night's Dream, Incidental Music, Op.61, MWV M 13-Arr. For Piano Duet-1. Overture
DR15 -3.31 dB -23.47 dB 3:59 12-Mendelssohn: A Midsummer Night's Dream, Incidental Music, Op.61, MWV M 13-Arr. For Piano Duet-2. Scherzo
DR13 -4.96 dB -23.48 dB 3:05 13-Mendelssohn: A Midsummer Night's Dream, Incidental Music, Op.61, MWV M 13-Arr. For Piano Duet-5. Intermezzo
DR14 -6.42 dB -27.01 dB 5:12 14-Mendelssohn: A Midsummer Night's Dream, Incidental Music, Op.61, MWV M 13-Arr. For Piano Duet-6. Notturno
––––––––––––––––––––––––––––––––––––––––

Number of tracks: 15
Official DR value: DR15

Samplerate: 96000 Hz
Channels: 2
Bits per sample: 24
Bitrate: 2290 kbps
Codec: FLAC
================================================================================


Thanks to the Original customer.