Serge Gainsbourg - Rock Around The Bunker (1975/2015) [Official Digital Download 24/96]

Posted By: SERTiL
Serge Gainsbourg - Rock Around The Bunker (1975/2015) [Official Digital Download 24/96]

Serge Gainsbourg - Rock Around The Bunker (1975/2015)
FLAC (tracks) 24-bit/96 kHz | Time - 28:54 minutes | 560 MB
Studio Master, Official Digital Download | Artwork: Front Cover

The sequence of brilliant, if somewhat unconventional, concept albums which occupied Serge Gainsbourg through the early to mid-'70s continues with an album which can be (and indeed has been) described as either a European reclamation of the pop potential of the Third Reich, following the success of Mel Brooks' The Producers, or an acerbic reclamation of a Jew's own humanity 30 years after the Nazis forced him to walk the streets in a bright yellow star. Or, and seen within the context of its maker's entire oeuvre, it might just be the slaughter of another of the sacred cows which Gainsbourg found so irresistible. His previous album, Vu de Exterieur, was dedicated to merde and pets; his next, L'Homme a Tete de Chou, tells the tale of an especially sadistic murderer. What more fitting, then, that in between times he should seize upon Adolf Hitler as a suitable theme. Recorded in England with a crack session band – who themselves were probably cracking up as the vision unfolded before them – Rock Around the Bunker is breezy, pop-inflected rock delivered, naturally, in precisely the same tones of honeyed lasciviousness and conspiratorial glee that Gainsbourg always employed for solo performances. Spy themes, pop hooks, rolling rhythms, and killer choruses – all the tricks of Gainsbourg's trade are here, and if you don't speak French, it could be about anything. Right?

Wrong. From the opening squall of "Nazi Rock" with its girly chorus gaily trilling the title at every chance they get, Rock Around the Bunker is unequivocal in hammering home its subject matter, so much so that you will never be able to listen to "Smoke Gets in Your Eyes" in the same way again. Now you know, from the preceding "Eva," that it's the one song which Hitler's lover used to sing which drove the Fuehrer mad. It's a shocker, then, but – as always with Gainsbourg – the intent is so draped in melody and intelligence that you have to work really hard to be offended. And if you'd put that much effort into something that negative, you probably shouldn't be listening to Gainsbourg in the first place. ~ AllMusic Review by Dave Thompson

Tracklist:
01. Nazi Rock (03:10)
02. Tata teutonne (02:47)
03. J'entends des voix off (02:05)
04. Eva (03:14)
05. Smoke Gets In Your Eyes (03:28)
06. Zig zig avec toi (03:37)
07. Est-ce est-ce si bon? (03:15)
08. Yellow Star (01:40)
09. Rock Around The Bunker (03:25)
10. S.S. In Uruguay (02:17)

foobar2000 1.3.7 / Dynamic Range Meter 1.1.1
log date: 2018-01-15 17:39:56

––––––––––––––––––––––––––––––––––––––––
Analyzed: Serge Gainsbourg / Rock Around The Bunker
––––––––––––––––––––––––––––––––––––––––

DR Peak RMS Duration Track
––––––––––––––––––––––––––––––––––––––––
DR11 -0.96 dB -15.10 dB 3:10 01-Nazi Rock
DR11 -2.04 dB -15.23 dB 2:47 02-Tata teutonne
DR11 -1.03 dB -14.22 dB 2:05 03-J'entends des voix off
DR12 -1.79 dB -16.06 dB 3:14 04-Eva
DR12 -1.92 dB -15.59 dB 3:28 05-Smoke Gets In Your Eyes
DR12 -1.15 dB -15.09 dB 3:37 06-Zig zig avec toi
DR11 -1.83 dB -15.93 dB 3:15 07-Est-ce est-ce si bon ?
DR12 -1.88 dB -15.46 dB 1:40 08-Yellow Star
DR11 -2.86 dB -15.47 dB 3:25 09-Rock Around The Bunker
DR12 -2.14 dB -15.74 dB 2:17 10-SS In Uruguay
––––––––––––––––––––––––––––––––––––––––

Number of tracks: 10
Official DR value: DR11

Samplerate: 96000 Hz
Channels: 2
Bits per sample: 24
Bitrate: 2726 kbps
Codec: FLAC
================================================================================


Thanks to the Original customer.