Rupert Gregson-Williams - The Crown Season Two (Soundtrack from the Netflix Original Series) (2017) Official Digital Download

Posted By: Pisulik
Rupert Gregson-Williams - The Crown Season Two (Soundtrack from the Netflix Original Series) (2017) Official Digital Download

Rupert Gregson-Williams - The Crown Season Two (Soundtrack from the Netflix Original Series) (2017)
FLAC (tracks) 24-bit/44.1 kHz | Time - 58:49 minutes | 547 MB
Studio Master, Official Digital Download | Artwork: Front cover

The Crown is a 2016 American-British television drama series created by Peter Morgan and starring Claire Foy, Matt Smith & John Lithgow. Based on an award-winning play (“The Audience”) by showrunner Peter Morgan, this lavish, Netflix-original drama chronicles the life of Queen Elizabeth II (Claire Foy) from the 1940s to modern times. The series begins with an inside look at the early reign of the queen, who ascended the throne at age 25 after the death of her father, King George VI. As the decades pass, personal intrigues, romances, and political rivalries are revealed that played a big role in events that shaped the later years of the 20th century. The score is composed by Rupert Gregson-Williams & Lorne Balfe.

Tracklist:

01. Bounden Duty
02. Dismissed
03. The Downfall
04. Homesick
05. Your Majesty
06. Headlines
07. Radio Speech
08. Future King
09. Christmas Message
10. New Guinea Match
11. We Shall Go to War
12. Be My Portrait
13. Philip's Dream
14. Princess Margaret
15. Critical Article
16. I Have No Choice
17. A New Chapter
18. Bring Him Home

foobar2000 1.3.7 / Dynamic Range Meter 1.1.1
log date: 2017-12-15 06:39:37

––––––––––––––––––––––––––––––––––––––––
Analyzed: Rupert Gregson-Williams / The Crown Season Two (Soundtrack from the Netflix Original Series)
––––––––––––––––––––––––––––––––––––––––

DR Peak RMS Duration Track
––––––––––––––––––––––––––––––––––––––––
DR8 -0.50 dB -13.76 dB 3:35 01-Bounden Duty
DR12 -0.78 dB -16.63 dB 3:40 02-Dismissed
DR10 -0.50 dB -14.05 dB 6:19 03-The Downfall
DR12 -3.60 dB -19.71 dB 3:41 04-Homesick
DR7 -0.49 dB -11.99 dB 4:14 05-Your Majesty
DR7 -0.50 dB -12.65 dB 4:25 06-Headlines
DR8 0.00 dB -13.49 dB 3:51 07-Radio Speech
DR9 -0.50 dB -13.74 dB 2:22 08-Future King
DR11 -0.50 dB -19.83 dB 3:58 09-Christmas Message
DR10 -0.50 dB -15.94 dB 1:57 10-New Guinea Match
DR9 -0.50 dB -11.73 dB 2:18 11-We Shall Go to War
DR11 -5.93 dB -21.00 dB 2:38 12-Be My Portrait
DR11 -0.42 dB -17.72 dB 3:00 13-Philip's Dream
DR12 -3.26 dB -19.64 dB 3:02 14-Princess Margaret
DR8 -0.50 dB -14.41 dB 1:24 15-Critical Article
DR11 -0.50 dB -16.10 dB 3:28 16-I Have No Choice
DR8 -0.50 dB -13.18 dB 1:56 17-A New Chapter
DR10 -0.50 dB -15.14 dB 3:09 18-Bring Him Home
––––––––––––––––––––––––––––––––––––––––

Number of tracks: 18
Official DR value: DR10

Samplerate: 44100 Hz
Channels: 2
Bits per sample: 24
Bitrate: 1329 kbps
Codec: FLAC
================================================================================


All thanks go to the original releaser