Santana - Abraxas {Quadraphonic} Vinyl Rip 24/96

Posted By: saidalani
Santana - Abraxas {Quadraphonic} Vinyl Rip 24/96

Santana - Abraxas (1970)
Vinyl rip in 24 bit/96 kHz | 840 Mb, 4% RAR Recovery | FLAC tracks | Complete Artwork
Columbia ‎– CQ 30130 (US, 1971, Quadraphonic) | Rock

Santana - Abraxas {Quadraphonic} Vinyl Rip 24/96

Tracklist
A1 Singing Winds, Crying Beasts 4:48
A2 Black Magic Woman / Gypsy Queen 5:17
A3 Oye Como Va 4:17
A4 Incident At Neshabur 4:58
B1 Se A Cabo 2:49
B2 Mother's Daughter 4:25
B3 Samba Pa Ti 4:46
B4 Hope You're Feeling Better 4:10
B5 El Nicoya 1:29

Carlos Santana – lead guitar, backing vocals, producer
Gregg Rolie – keyboards, lead vocals
David Brown – bass
Michael Shrieve – drums
José "Chepito" Areas – percussion, conga, timbales
Mike Carabello – percussion, conga


RIG:
SHUNYATA RESEARCH HYDRA V-RAY VERSION II (Power distribution, conditioner and filter)
RECORD REVIRGINIZER vinyl record cleaner.
RCM: Clearaudio Smart Matrix (ClearAudio Pure Groove + L’Art du Son Cleaning Fluid + Osage brush)
Ultrasonic Cleaning (40 kHz) for 30′-60' at 35°C max. with personal blend of wetting agents and surfactants.
TURNTABLE: Dr. Feickert Blackbird + INERTIA platter
The Clean Continuous Battery Power Supply (CBPS) Dr. Feickert
TONEARM: Reed 3Q 10,5" (Finewire C37 + Cryo WBT Nextgen, Armwand Pernambuco, Headshell with VTA and Azimuth laser adjustment)
CARTRIDGE: Dynavector DV DRT XV-1t
PHONO STAGE: Allnic H-3000 (+22 dB GAIN, charge impedance 177 Ohm)
ADC SYSTEM: Lavry Black AD11 external USB 2.0 ADC

Vinyl condition: NM (-)
Minimal manual declick with iZotopeRX





Analyzed: Santana / Abraxas {Quadraphonic, US}
––––––––––––––––––––––––––––––––––––––––

DR Peak RMS Duration Track
––––––––––––––––––––––––––––––––––––––––
DR11 -2.32 dB -17.67 dB 4:51 ?-A1 Singing Winds, Crying Beasts
DR11 -2.13 dB -15.53 dB 5:25 ?-A2 Black Magic Woman - Gypsy Queen
DR13 -1.35 dB -15.85 dB 4:20 ?-A3 Oye Como Va
DR11 -3.13 dB -16.36 dB 5:05 ?-A4 Incident At Neshabur
DR11 -2.10 dB -15.24 dB 2:51 ?-B1 Se A Cabo
DR11 -1.69 dB -15.25 dB 4:29 ?-B2 Mother's Daughter
DR11 -3.82 dB -17.43 dB 4:48 ?-B3 Samba Pa Ti
DR12 -1.58 dB -15.16 dB 4:10 ?-B4 Hope You're Feeling Better
DR11 -3.06 dB -16.94 dB 1:32 ?-B5 El Nicoya
––––––––––––––––––––––––––––––––––––––––

Number of tracks: 9
Official DR value: DR11

Samplerate: 96000 Hz
Channels: 2
Bits per sample: 24
Bitrate: 2603 kbps
Codec: FLAC
==========================================================
NITROFLARE
Password: PataNegra
magnet:?xt=urn:btih:5F02C32BAB0A1D942D041491A3E37D731FDCA1D4