Subcategories

Ensemble Vocal De Lausanne & Michel Corboz - Schola Aeterna - Chants à la vierge (2016) [Official Digital Download 24/96]

Posted By: SERTiL
Ensemble Vocal De Lausanne & Michel Corboz - Schola Aeterna - Chants à la vierge (2016) [Official Digital Download 24/96]

Ensemble Vocal De Lausanne & Michel Corboz - Schola Aeterna - Chants à la vierge (2016)
FLAC (tracks) 24-bit/96 kHz | Time - 77:20 minutes | 569 MB
Studio Master, Official Digital Download | Artwork: Digital booklet

This programme stands out forcefully against the idea of a supposed rivalry between the Conservatoire and the Schola Cantorum and showcases techniques inherited from both plainsong and a golden age of polyphony by three generations of musicians. La Schola was founded in 1894 and opened on 15 October 1896 as an alternative to the emphasis on opera at the Paris Conservatoire and to foster the study of late Baroque and early Classical works, Gregorian chant and Renaissance polyphony. On this release from Mirare, esteemed choral conductor Michel Corboz leads the Ensemble Vocal de Lausanne in a collection of French music written in honour of the Virgin Mary.

TRACKLIST
01. Mass, Op. 12: V. Panis angelicus (soprano)
02. Domine non secundum, FWV 66
03. Ave Maria, FWV 62
04. Quae est ista, FWV 63
05. Dextera Domini, FWV 65
06. Quelques vieux cantiques bretons: I. Esprits heureux du Paradis
07. Quelques vieux cantiques bretons: II. Nous t'implorons avec amour
08. Quelques vieux cantiques bretons: III. Sainte Anne, bonne mère
09. Quelques vieux cantiques bretons: IV. Le Paradis Solistes
10. Offertoire de la Toussaint
11. Ave maris stella
12. Tantum ergo
13. Ave Maria
14. Messe à trois voix égales: I. Kyrie
15. Messe à trois voix égales: II. Gloria
16. Messe à trois voix égales: III. Sanctus, Benedictus
17. Messe à trois voix égales: IV. Agnus Dei
18. Messe modale: I. Kyrie
19. Messe modale: II. Gloria
20. Messe modale: III. Sanctus, Benedictus
21. Messe modale: IV. Agnus Dei
22. Mass, Op. 12: Panis angelicus (ténor)

PERSONNEL
Ensemble Vocal de Lausanne
Michel Corboz, conductor

foobar2000 1.3.7 / Dynamic Range Meter 1.1.1
log date: 2017-10-07 18:08:16

––––––––––––––––––––––––––––––––––––––––
Analyzed: Ensemble Vocal Lausanne and Michel Corboz / Schola Aeterna - Chants à la vierge (1-16)
Ensemble Vocal Lausanne, Jonathan Spicher, Michel Corboz and Manuel Rebelo / Schola Aeterna - Chants à la vierge (17)
Ensemble Vocal Lausanne, Marie Jaermann and Michel Corboz / Schola Aeterna - Chants à la vierge (18)
Ensemble Vocal Lausanne, Marie Jaermann, Jonathan Spicher, Michel Corboz and Manuel Rebelo / Schola Aeterna - Chants à la vierge (19)
Ensemble Vocal Lausanne, Michel Corboz and Hélène Pelourdeau / Schola Aeterna - Chants à la vierge (20)
Ensemble Vocal Lausanne, Michel Corboz and Jonathan Spicher / Schola Aeterna - Chants à la vierge (21)
Ensemble Vocal Lausanne, Michel Corboz, Jonathan Spicher and Hélène Pelourdeau / Schola Aeterna - Chants à la vierge (22)
––––––––––––––––––––––––––––––––––––––––

DR Peak RMS Duration Track
––––––––––––––––––––––––––––––––––––––––
DR12 -0.50 dB -18.00 dB 4:31 02-Domine non secundum, FWV 66
DR12 0.00 dB -18.03 dB 2:23 03-Ave Maria, FWV 62
DR12 -4.42 dB -20.40 dB 2:35 06-Quelques vieux cantiques bretons: I. Esprits heureux du Paradis
DR10 -6.82 dB -21.50 dB 1:34 07-Quelques vieux cantiques bretons: II. Nous t'implorons avec amour
DR13 0.00 dB -17.73 dB 5:30 10-Offertoire de la Toussaint
DR12 -1.33 dB -19.31 dB 3:20 11-Ave maris stella
DR12 -3.77 dB -21.17 dB 3:06 12-Tantum ergo
DR11 -4.90 dB -20.64 dB 3:03 13-Ave Maria
DR11 -0.61 dB -16.77 dB 3:18 14-Messe à trois voix égales: I. Kyrie
DR10 0.00 dB -15.10 dB 3:56 15-Messe à trois voix égales: II. Gloria
DR11 -2.74 dB -18.73 dB 3:01 16-Messe à trois voix égales: III. Sanctus, Benedictus
DR12 -0.03 dB -19.11 dB 2:24 17-Messe à trois voix égales: IV. Agnus Dei
DR11 -5.12 dB -21.08 dB 2:25 18-Messe modale: I. Kyrie
DR11 -1.87 dB -17.67 dB 3:16 19-Messe modale: II. Gloria
DR11 -1.62 dB -17.81 dB 2:27 20-Messe modale: III. Sanctus, Benedictus
DR11 -2.00 dB -20.84 dB 2:19 21-Messe modale: IV. Agnus Dei
DR12 0.00 dB -16.45 dB 5:51 04-Quae est ista, FWV 63
DR12 -3.14 dB -19.32 dB 4:45 01-Mass, Op. 12: V. Panis angelicus (soprano)
DR12 0.00 dB -15.97 dB 8:33 05-Dextera Domini, FWV 65
DR13 -9.25 dB -26.40 dB 3:17 09-Quelques vieux cantiques bretons: IV. Le Paradis Solistes
DR12 -4.14 dB -20.11 dB 4:29 22-Mass, Op. 12: Panis angelicus (ténor)
DR11 -9.38 dB -25.23 dB 1:28 08-Quelques vieux cantiques bretons: III. Sainte Anne, bonne mère
––––––––––––––––––––––––––––––––––––––––

Number of tracks: 22
Official DR value: DR11

Samplerate: 96000 Hz
Channels: 2
Bits per sample: 24
Bitrate: 926 kbps
Codec: FLAC
================================================================================


Thanks to the Original customer.