Shawn Mendes - MTV Unplugged (2017) [Official Digital Download]

Posted By: Pisulik
Shawn Mendes - MTV Unplugged (2017) [Official Digital Download]

Shawn Mendes - MTV Unplugged (2017)
FLAC (tracks) 24-bit/48 kHz | Time - 50:41 minutes | 607 MB
Studio Master, Official Digital Download | Artwork: Front cover

Shawn Mendes brings his fans a live MTV Unplugged performance of hit tracks from his previous albums, Illuminate and Handwritten, on 11/3 via Island Records. The intimate performance took place in Downtown Los Angeles at The Theatre at Ace Hotel & aired on September 8th nationwide. Mendes’ Unplugged performance was the premiere to MTV’s ‘90s revival of the concert series. He will continue his Illuminate World Tour in Australia & New Zealand in November.

Tracklist:

01. There's Nothing Holdin' Me Back (MTV Unplugged)
02. Ruin (MTV Unplugged)
03. Stitches (MTV Unplugged)
04. Three Empty Words (MTV Unplugged)
05. Patience (MTV Unplugged)
06. Bad Reputation (MTV Unplugged)
07. Don't Be A Fool (MTV Unplugged)
08. Roses (MTV Unplugged)
09. Mercy (MTV Unplugged)
10. Never Be Alone (MTV Unplugged)
11. Use Somebody_Treat You Better (MTV Unplugged)

foobar2000 1.3.7 / Dynamic Range Meter 1.1.1
log date: 2017-11-03 03:10:32

––––––––––––––––––––––––––––––––––––––––
Analyzed: Shawn Mendes / MTV Unplugged
––––––––––––––––––––––––––––––––––––––––

DR Peak RMS Duration Track
––––––––––––––––––––––––––––––––––––––––
DR6 0.00 dB -9.13 dB 3:30 01-There's Nothing Holdin' Me Back
DR7 0.00 dB -9.88 dB 6:21 02-Ruin
DR8 0.00 dB -11.38 dB 4:24 03-Stitches
DR12 0.00 dB -14.84 dB 4:19 04-Three Empty Words
DR10 0.00 dB -11.96 dB 3:14 05-Patience
DR6 0.00 dB -9.14 dB 5:11 06-Bad Reputation
DR8 0.00 dB -10.93 dB 5:38 07-Don't Be A Fool
DR10 0.00 dB -13.05 dB 4:14 08-Roses
DR6 0.00 dB -9.49 dB 3:48 09-Mercy
DR9 0.00 dB -11.79 dB 4:49 10-Never Be Alone
DR7 0.00 dB -9.63 dB 5:16 11-Use Somebody_Treat You Better
––––––––––––––––––––––––––––––––––––––––

Number of tracks: 11
Official DR value: DR8

Samplerate: 48000 Hz
Channels: 2
Bits per sample: 24
Bitrate: 1700 kbps
Codec: FLAC
================================================================================


All thanks go to the original releaser