Ensemble Sébastien de Brossard, Fabien Armengaud & Jean-François Novelli - Silentium. Motets pour taille (2018) [24/88]

Posted By: SERTiL
Ensemble Sébastien de Brossard, Fabien Armengaud & Jean-François Novelli - Silentium. Motets pour taille (2018) [24/88]

Ensemble Sébastien de Brossard, Fabien Armengaud & Jean-François Novelli - Silentium. Motets pour taille (2018)
FLAC (tracks) 24-bit/88.2 kHz | Time - 72:50 minutes | 1.29 GB
Studio Master, Official Digital Download | Artwork: Digital Booklet

Avec la prononciation du latin « à la française » tel qu’on la pratiquait au temps du Roi Soleil, Jean-François Novelli explore le répertoire allant de la moitié à la fin du règne de Louis XIV : Charpentier bien sûr, Louis Couperin (l’oncle de François, « le Grand »), André Campra parmi d’autres, la fine fleur des compositeurs de leur temps. La plupart de ces œuvres n’ont pas spécifiquement été écrites pour voix de « taille », autrement dit le registre médian chez l’homme, mais plutôt pour haute-contre ou basse, des voix respectivement plus brillante pour l’une, plus sonore pour l’autre, du moins à cette époque : elles ont ici été redistribuées, parfois avec quelques transpositions – dont certaines déjà proposées par les compositeurs eux-mêmes qui savaient bien qu’on avait usage de prendre les chanteurs qu’on avait sous la main. L’accompagnement est assuré par deux violons, deux basses de viole, théorbe, clavecin et orgue positif, pas forcément tout le monde en même temps bien sûr. Afin d’alléger l’album, les musiciens nous donnent, entre les motets, quelques pièces instrumentales pures, en l’occurrence de Henry du Mont et Pierre Bouteiller.

Tracklist:
01. Silentium dormi, SdB. 52
02. O salutaris Hostia
03. Motet à la manière italienne à voix seule avec deux dessus de violon: Quis ego Domine
04. Allemande
05. O prestiosum et admirabile convivium, H. 247
06. Nunc dimittis
07. Pavane
08. Salve Regina des Jésuites, H. 27
09. Simphonie
10. Lauda Sion salvatorem, H. 268A
11. Tantum erga
12. Motet à voix seule et deux dessus de violons de Monsieur S******: Quando veniam

Personnel:
Jean-François Novelli, taille
Stéphan Dudermel et François Costa, violons
Yuka Saïtô et Matthieu Lusson, violes de gambe
Stéphanie Petibon, théorbe
Fabien Armengaud, orgue, clavecin & direction

foobar2000 1.3.7 / Dynamic Range Meter 1.1.1
log date: 2018-03-10 13:37:21

––––––––––––––––––––––––––––––––––––––––
Analyzed: Fabien Armengaud / Yuka Saïtô / Silentium. Motets pour taille (1)
Fabien Armengaud / Silentium. Motets pour taille (2-3)
Jean-François Novelli / Ensemble Sébastien Brossard / Fabien Armengaud / Silentium. Motets pour taille (4-12)
––––––––––––––––––––––––––––––––––––––––

DR Peak RMS Duration Track
––––––––––––––––––––––––––––––––––––––––
DR9 -1.72 dB -15.05 dB 2:23 09-Simphonie
DR13 -11.30 dB -27.91 dB 4:23 04-Allemande
DR14 -8.98 dB -26.96 dB 5:25 07-Pavane
DR12 -1.05 dB -16.61 dB 8:44 01-Silentium dormi, SdB. 52
DR10 -1.06 dB -14.81 dB 3:55 02-O salutaris Hostia
DR12 -1.29 dB -16.03 dB 12:57 03-Motet à la manière italienne à voix seule avec deux dessus de violon: Quis ego Domine
DR11 -1.08 dB -14.76 dB 5:06 05-O prestiosum et admirabile convivium, H. 247
DR11 -1.06 dB -14.88 dB 7:26 06-Nunc dimittis
DR12 -1.25 dB -15.26 dB 3:35 08-Salve Regina des Jésuites, H. 27
DR11 -1.08 dB -13.83 dB 3:04 10-Lauda Sion salvatorem, H. 268A
DR10 -1.12 dB -13.69 dB 4:29 11-Tantum erga
DR12 -1.06 dB -16.14 dB 11:29 12-Motet à voix seule et deux dessus de violons de Monsieur S******: Quando veniam
––––––––––––––––––––––––––––––––––––––––

Number of tracks: 12
Official DR value: DR11

Samplerate: 88200 Hz
Channels: 2
Bits per sample: 24
Bitrate: 2569 kbps
Codec: FLAC
================================================================================


Thanks to the Original customer.