Simone Kermes - Strauss & Mahler: Piano Quartets & Lieder (2014) [Official Digital Download]

Posted By: SERTiL
Simone Kermes - Strauss & Mahler: Piano Quartets & Lieder (2014) [Official Digital Download]

Simone Kermes - Strauss & Mahler: Piano Quartets & Lieder (2014)
FLAC (tracks) 24-bit/44.1 kHz | Time - 76:45 minutes | 684 MB
Studio Master, Official Digital Download | Artwork: Digital Booklet

Collaborating for the first time the Fauré Quartett and soprano Simone Kermes perform pieces by Gustav Mahler and Richard Strauss: Featuring Lieder from Strauss‘s early productive period and Mahler Lieder arranged by Dietrich Zöllner.

Simone Kermes underlines with these Lieder interpretation the diversity of her stylistic sensibility. In equal measure the Fauré Quartett once again demonstrates the enormous range of its repertoire. The Fauré Quartett’s new recording of works by Gustav Mahler and Richard Strauss borders on a small miracle: Strauss, as the founding father of the German performance and reproduction rights organisation GEMA, personally ensured that musicians were not permitted to make arrangements of his works until 70 years after his death (2019). After months of research, a direct call to the great-granddaughter of Richard Strauss allowed this arrangement to happen.

In time for the 150th birthday of Richard Strauss, and to express reverence to Gustav Mahler, this recording includes two works dating from the young years of these geniuses: their great and seldom recorded piano quartets.

“These have been skilfully undertaken by Dietrich Zollner and are nicely sung by Simone Kermes. The recorded sound too is sensitive to the nuances of the music.” (MusicWeb International)

“A flamboyant star in her native Germany, Simone Kermes is a dangerous, no-holds-barred singer.” (Gramophone)

Tracklist:

Richard Strauss (1864–1949)

01. Klavierquartett in C-Moll Op. 13: I. Allegro
02. Klavierquartett in C-Moll Op. 13: II. Scherzo
03. Klavierquartett in C-Moll Op. 13: III. Andante
04. Klavierquartett in C-Moll Op. 13: IV. Finale-Vivace
05. Cäcilie, Op. 27, Nr. 2
06. Die Nacht, Op. 10, Nr. 3
07. Morgen, Op. 27, Nr. 4
08. Zueignung, Op. 10, Nr. 1
09. Heimliche Aufforderung, Op. 27, Nr. 3
10. Allerseelen, Op. 10, Nr. 8

Gustav Mahler (1860–1911)

11. Erinnerung
12. Wo die schönen Trompeten blasen
13. Klavierquartett in A-Moll

Personnel:
Simone Kermes, soprano
Dirk Mommertz, piano
Faure Quartet

foobar2000 1.3.7 / Dynamic Range Meter 1.1.1
log date: 2018-02-12 21:58:52

––––––––––––––––––––––––––––––––––––––––
Analyzed: Fauré Quartett / Strauss & Mahler: Piano Quartets & Lieder (1-5)
Simone Kermes / Strauss & Mahler: Piano Quartets & Lieder (6-13)
––––––––––––––––––––––––––––––––––––––––

DR Peak RMS Duration Track
––––––––––––––––––––––––––––––––––––––––
DR14 -0.14 dB -18.50 dB 13:34 01-Klavierquartett in C-Moll Op. 13: I. Allegro
DR15 -0.52 dB -20.37 dB 6:17 02-Klavierquartett in C-Moll Op. 13: II. Scherzo
DR13 -2.33 dB -21.36 dB 7:44 03-Klavierquartett in C-Moll Op. 13: III. Andante
DR14 -0.14 dB -18.33 dB 9:30 04-Klavierquartett in C-Moll Op. 13: IV. Finale-Vivace
DR13 -0.99 dB -19.85 dB 12:15 13-Klavierquartett in A-Moll
DR11 -0.14 dB -16.37 dB 2:13 05-Cäcilie, Op. 27, Nr. 2
DR12 -0.33 dB -19.44 dB 2:42 06-Die Nacht, Op. 10, Nr. 3
DR14 -11.43 dB -31.40 dB 4:14 07-Morgen, Op. 27, Nr. 4
DR11 -0.14 dB -16.89 dB 1:26 08-Zueignung, Op. 10, Nr. 1
DR13 -0.14 dB -18.46 dB 3:18 09-Heimliche Aufforderung, Op. 27, Nr. 3
DR13 -0.14 dB -20.28 dB 3:01 10-Allerseelen, Op. 10, Nr. 8
DR14 -1.13 dB -23.46 dB 3:07 11-Erinnerung
DR15 -5.19 dB -25.74 dB 7:29 12-Wo die schönen Trompeten blasen
––––––––––––––––––––––––––––––––––––––––

Number of tracks: 13
Official DR value: DR13

Samplerate: 44100 Hz
Channels: 2
Bits per sample: 24
Bitrate: 1203 kbps
Codec: FLAC
================================================================================


Thanks to the Original customer.