Sinfonia Grange au Lac, Esa-Pekka Salonen - Beethoven: Symphony No. 3 "Eroica" - Strauss: Metamorphosen (2019) [24/48]

Posted By: SERTiL
Sinfonia Grange au Lac, Esa-Pekka Salonen - Beethoven: Symphony No. 3 "Eroica" - Strauss: Metamorphosen (2019) [24/48]

Sinfonia Grange au Lac, Esa-Pekka Salonen - Beethoven: Symphony No. 3 "Eroica" - Strauss: Metamorphosen (2019)
FLAC (tracks) 24-bit/48 kHz | Time - 75:15 minutes | 782 MB
Studio Master, Official Digital Download | Artwork: Digital Booklet

This live recording of Strauss’s Metamorphosen and Beethoven’s Eroica Symphony marks the birth on record of the ‘Sinfonia Grange au Lac’, an orchestra created in July 2018 on the occasion of the Rencontres Musicales d’Évian, the prestigious festival created by Mstislav Rostropovich in 1985 and revived since 2014. A musical ambassador intended to promote the excellence of its parent festival worldwide, the Sinfonia Grange au Lac consists of musicians from leading European orchestras (in Amsterdam, Berlin, Frankfurt, Leipzig, London, Lucerne, Munich, Paris, Salzburg, Valencia and Vienna) as well as existing groups such as the Trio Karénine and the Quatuor Ébène. And it was a stroke of genius to manage to secure the services of Esa-Pekka Salonen. The brilliant Finn became a passionate supporter of the project, checking the list of members one by one. He told Diapason magazine: ‘Our work together made me understand what guided Claudio Abbado when he created the Lucerne Festival Orchestra: the pleasure of working with handpicked musicians and making music with great freshness.’

Tracklist:
1. Metamorphosen, TRV 290 (28:43)
2. Symphony No. 3 in E-Flat Major, Op. 55 "Eroica": I. Allegro con brio (13:15)
3. Symphony No. 3 in E-Flat Major, Op. 55 "Eroica": II. Marcia funebre (Allegro assai) (15:48)
4. Symphony No. 3 in E-Flat Major, Op. 55 "Eroica": III. Scherzo (Allegro vivace) - Trio (05:39)
5. Symphony No. 3 in E-Flat Major, Op. 55 "Eroica": IV. Finale (Allegro molto) (11:50)

foobar2000 1.3.7 / Dynamic Range Meter 1.1.1
log date: 2019-09-06 13:37:15

––––––––––––––––––––––––––––––––––––––––
Analyzed: Sinfonia Grange au Lac / Beethoven: Symphony No. 3 "Eroica" - Strauss: Metamorphosen
––––––––––––––––––––––––––––––––––––––––

DR Peak RMS Duration Track
––––––––––––––––––––––––––––––––––––––––
DR13 -0.30 dB -18.69 dB 28:44 01-Metamorphosen, TRV 290
DR13 -0.30 dB -18.25 dB 13:16 02-I. Allegro con brio
DR15 -0.30 dB -20.62 dB 15:49 03-II. Marcia funebre (Allegro assai)
DR13 -0.30 dB -19.24 dB 5:40 04-III. Scherzo (Allegro vivace) - Trio
DR14 -0.30 dB -18.79 dB 11:50 05-IV. Finale (Allegro molto)
––––––––––––––––––––––––––––––––––––––––

Number of tracks: 5
Official DR value: DR14

Samplerate: 48000 Hz
Channels: 2
Bits per sample: 24
Bitrate: 1397 kbps
Codec: FLAC
================================================================================


Thanks to the Original customer.