Albrecht Mayer & The King's Singers - Song Of The Reeds (2017) [Official Digital Download 24/96]

Posted By: SERTiL
Albrecht Mayer & The King's Singers - Song Of The Reeds (2017) [Official Digital Download 24/96]

Albrecht Mayer & The King's Singers - Song Of The Reeds (2017)
FLAC (tracks) 24-bit/96 kHz | Time - 64:00 minutes | 1.07 GB
Studio Master, Official Digital Download | Artwork: Digital Booklet

The repertoire of the new album revels in the Romantic tradition of the instrument with Schuman's popular Three Romances and works by contemporaries of Brahms and Liszt composed for Mayer's instrument: Heinrich Herzogenberg's Trio for Oboe, Horn, and Piano and August Klughardt's five fantasy pieces Schilflieder (Song of the Reeds) for oboe, viola, and piano

Albrecht Mayer is joined by outstanding viola player Tabea Zimmermann, horn player Marie-Luise Neunecker, and by Markus Becker at the piano, “unbeatable as a virtuoso, a musical soul painter with great understanding” (Frankfurter Allgemeine Zeitung)

The album title is taken from the title of the work by Klughardt and acknowledges the longing of Romantic music, the acclaimed vocal tone of Albrecht Mayer’s playing, and the reed which gives his instrument its unique voice

'In the right hands, the oboe can be powerfully alluring, as Albrecht Mayer proves on this enchanting collaboration with violist Tabea Zimmermann, hornist Marie-Luise Neunecker and pianist Markus Becker … Mayer reveals the instrument's incredible range and his own virtuosity …' (Zachary Lewis, Plain Dealer)

Tracklist:
01. Klughardt: Schilflieder-Fünf Fantasiestücke nach Gedlichten von Nikolaus Lenau-1. Langsam, träumerisch
02. Klughardt: Schilflieder-Fünf Fantasiestücke nach Gedlichten von Nikolaus Lenau-2. Leidenschaftlich erregt
03. Klughardt: Schilflieder-Fünf Fantasiestücke nach Gedlichten von Nikolaus Lenau-3. Zart, in ruhiger Bewegung
04. Klughardt: Schilflieder-Fünf Fantasiestücke nach Gedlichten von Nikolaus Lenau-4. Feurig
05. Klughardt: Schilflieder-Fünf Fantasiestücke nach Gedlichten von Nikolaus Lenau-5. Sehr ruhig
06. Schumann: 3 Romances, Op.94-No.1 Nicht schnell
07. Schumann: 3 Romances, Op.94-No.2 Einfach, innig
08. Schumann: 3 Romances, Op.94-No.3 Nicht schnell
09. Herzogenberg: Trio for Oboe, Horn & Klavier, Op.61-1. Allegretto
10. Herzogenberg: Trio For Oboe, Horn & Klavier, Op.61-2. Presto
11. Herzogenberg: Trio for Oboe, Horn & Klavier, Op.61-3. Andante con moto
12. Herzogenberg: Trio for Oboe, Horn & Klavier, Op.61-4. Allegro
13. Steinmetz: "Liebesruf eines Faun" for English Horn & Piano
14. Prelude
15. Weismann: Variations For Oboe & Piano, Op.39-4. Lento, molto tranquilo

Personnel:
Albrecht Mayer, oboe
Markus Becker, piano
Marie-Luise Neunecker, french horn
Tabea Zimmermann, viola

foobar2000 1.3.7 / Dynamic Range Meter 1.1.1
log date: 2017-12-28 21:38:43

––––––––––––––––––––––––––––––––––––––––
Analyzed: Albrecht Mayer & Markus Becker & Marie-Luise Neunecker / Albrecht Mayer: Song of the Reeds (1)
Albrecht Mayer & Tabea Zimmermann & Markus Becker / Albrecht Mayer: Song of the Reeds (2)
Albrecht Mayer and Markus Becker and Tabea Zimmermann / Albrecht Mayer: Song of the Reeds (3-4)
Albrecht Mayer and Markus Becker / Albrecht Mayer: Song of the Reeds (5-7)
Marie-Luise Neunecker & Albrecht Mayer & Markus Becker / Albrecht Mayer: Song of the Reeds (8)
Marie-Luise Neunecker & Markus Becker & Albrecht Mayer / Albrecht Mayer: Song of the Reeds (9-10)
Markus Becker & Albrecht Mayer / Albrecht Mayer: Song of the Reeds (11-12)
Markus Becker & Tabea Zimmermann & Albrecht Mayer / Albrecht Mayer: Song of the Reeds (13)
Markus Becker / Albrecht Mayer: Song of the Reeds (14)
Tabea Zimmermann & Albrecht Mayer & Markus Becker / Albrecht Mayer: Song of the Reeds (15)
––––––––––––––––––––––––––––––––––––––––

DR Peak RMS Duration Track
––––––––––––––––––––––––––––––––––––––––
DR12 -2.08 dB -18.83 dB 5:54 11-Herzogenberg: Trio for Oboe, Horn & Klavier, Op.61-3. Andante con moto
DR12 -0.17 dB -15.93 dB 2:59 02-Klughardt: Schilflieder-Fünf Fantasiestücke nach Gedlichten von Nikolaus Lenau-2. Leidenschaftlich erregt
DR11 -0.13 dB -14.97 dB 2:45 04-Klughardt: Schilflieder-Fünf Fantasiestücke nach Gedlichten von Nikolaus Lenau-4. Feurig
DR13 -3.93 dB -22.70 dB 4:06 05-Klughardt: Schilflieder-Fünf Fantasiestücke nach Gedlichten von Nikolaus Lenau-5. Sehr ruhig
DR13 -3.62 dB -22.53 dB 4:06 06-Schumann: 3 Romances, Op.94-No.1 Nicht schnell
DR12 -3.57 dB -21.08 dB 4:40 07-Schumann: 3 Romances, Op.94-No.2 Einfach, innig
DR11 -8.33 dB -25.11 dB 1:56 15-Weismann: Variations For Oboe & Piano, Op.39-4. Lento, molto tranquilo
DR11 -0.10 dB -16.14 dB 7:43 09-Herzogenberg: Trio for Oboe, Horn & Klavier, Op.61-1. Allegretto
DR13 -0.20 dB -17.76 dB 3:50 10-Herzogenberg: Trio For Oboe, Horn & Klavier, Op.61-2. Presto
DR12 -0.08 dB -16.42 dB 4:57 12-Herzogenberg: Trio for Oboe, Horn & Klavier, Op.61-4. Allegro
DR13 -5.61 dB -22.08 dB 4:49 08-Schumann: 3 Romances, Op.94-No.3 Nicht schnell
DR14 -0.37 dB -21.11 dB 5:56 13-Steinmetz: "Liebesruf eines Faun" for English Horn & Piano
DR13 -3.47 dB -22.51 dB 3:35 01-Klughardt: Schilflieder-Fünf Fantasiestücke nach Gedlichten von Nikolaus Lenau-1. Langsam, träumerisch
DR13 -1.90 dB -21.13 dB 1:17 14-Prelude
DR14 -1.91 dB -22.30 dB 5:36 03-Klughardt: Schilflieder-Fünf Fantasiestücke nach Gedlichten von Nikolaus Lenau-3. Zart, in ruhiger Bewegung
––––––––––––––––––––––––––––––––––––––––

Number of tracks: 15
Official DR value: DR13

Samplerate: 96000 Hz
Channels: 2
Bits per sample: 24
Bitrate: 2355 kbps
Codec: FLAC
================================================================================


Thanks to the Original customer.