Sonny Rollins - Newk's Time (1959/2013) [Official Digital Download 24/192]

Posted By: pyatak
Sonny Rollins - Newk's Time (1959/2013) [Official Digital Download 24/192]

Sonny Rollins - Newk's Time (1959/2013) [Official Digital Download 24/192]
FLAC (tracks) 24-bit/192 kHz | Front Cover | Time - 34:09 minutes | 1,22 GB
Jazz | Label: Blue Note (BLU), Official Digital Download

Newk's Time is an album by Sonny Rollins. It was his third album for Blue Note Records, recorded in 1957 and released in 1959. The title of the album is a reference to Rollins' nickname "Newk", which is apparently based on his resemblance to Don Newcombe, a pitcher for the Brooklyn Dodgers.[6] "Namely You" was taken from the Broadway show Li'l Abner. The release marked the beginning of Blue Note 4000 series: from this album on, the releases would be catalogued as "BLP 4…" (mono) and "BST 84…" (stereo).

Rollins' version of "Surrey with the Fringe on Top", from the musical Oklahoma!, is notable for being a duet between the drums of Philly Joe Jones and the saxophonist.

TRACKLIST

1. Sonny Rollins - Tune Up
2. Sonny Rollins - Asiatic Raes
3. Sonny Rollins - Wonderful! Wonderful!
4. Sonny Rollins - The Surrey With The Fringe On Top
5. Sonny Rollins - Blues For Philly Joe
6. Sonny Rollins - Namely You

foobar2000 1.6.2 / Dynamic Range Meter 1.1.1
log date: 2021-05-14 20:43:25

––––––––––––––––––––––––––––––––––––––––
Analyzed: Sonny Rollins / Newk's Time
––––––––––––––––––––––––––––––––––––––––

DR Peak RMS Duration Track
––––––––––––––––––––––––––––––––––––––––
DR13 -0.71 dB -16.13 dB 5:44 01-Tune Up
DR12 -1.13 dB -16.08 dB 5:56 02-Asiatic Raes
DR13 -0.34 dB -15.81 dB 5:59 03-Wonderful! Wonderful!
DR13 -1.31 dB -16.76 dB 6:31 04-The Surrey With The Fringe On Top
DR12 -0.14 dB -14.67 dB 6:43 05-Blues For Philly Joe
DR15 -0.38 dB -17.66 dB 3:19 06-Namely You
––––––––––––––––––––––––––––––––––––––––

Number of tracks: 6
Official DR value: DR13

Samplerate: 192000 Hz
Channels: 2
Bits per sample: 24
Bitrate: 4878 kbps
Codec: FLAC
================================================================================



Thanks to the Original customer.