Steve Reid's Bamboo Forest - Mysteries (1997) [DTS 5.1 Surround Sound]

Posted By: popsakov
Steve Reid's Bamboo Forest - Mysteries (1997) [DTS 5.1 Surround Sound]

Steve Reid's Bamboo Forest - Mysteries (1997) [DTS 5.1 Surround Sound]
DTS CD | EAC Rip | WAV, Tracks+Cue, Log, Covers | DTS, 6 ch, 16 bit, 44,0 khz, 1411 kbps
~ 563 Mb | Filesonic, HF, FileServe | 3% Recovery
Genre: Contemporary Jazz, Smooth Jazz | Label: TELARC | Catalog#: CD-83415 | USA

Steve Reid is an American jazz percussionist, best known as a founding member of The Rippingtons.
Reid began playing as a session musician in the 1970s, playing on hundreds of recordings, including sessions led by the legendary Miles Davis. Reid co-founded The Rippingtons in 1987 and also played with Supertramp in 1987-88. In 1993, 1995, and 1997 he was named Percussionist of the Year by Jazziz magazine. He has released five albums under his own name.
Track List:

01. Mysteries [03:54]
02. Sunrise Celebration [04:48]
03. Prelude to Mr. Mystery [00:22]
04. Mr. Mystery [04:10]
05. Soul Mates [04:43]
06. Hideaway of Love [04:20]
07. Ancient Profiles [05:02]
08. Spirit Path [02:37]
09. Pyramid of the Sun [04:33]
10. Look to the Sky [04:40]
11. Atlantis [05:30]
12. City of Gold [04:30]
13. Guardian of the Falls [04:10]

Total time: 00:53:18

Exact Audio Copy V0.99 prebeta 3 from 28. July 2007

EAC extraction logfile from 22. April 2009, 12:36

Steve Reid 's Bamboo Forest / Mysteries(DTS)

Used drive : TSSTcorpCDDVDW SE-S204N Adapter: 6 ID: 4

Read mode : Secure
Utilize accurate stream : Yes
Defeat audio cache : Yes
Make use of C2 pointers : No

Read offset correction : 6
Overread into Lead-In and Lead-Out : No
Fill up missing offset samples with silence : Yes
Delete leading and trailing silent blocks : No
Null samples used in CRC calculations : Yes
Used interface : Installed external ASPI interface
Gap handling : Not detected, thus appended to previous

track

Used output format : Internal WAV Routines
Sample format : 44.100 Hz; 16 Bit; Stereo


TOC of the extracted CD

Track | Start | Length | Start sector | End sector
––––––––––––––––––––––––––––-
1 | 0:00.00 | 3:54.17 | 0 | 17566
2 | 3:54.17 | 4:47.43 | 17567 | 39134
3 | 8:41.60 | 0:21.65 | 39135 | 40774
4 | 9:03.50 | 4:09.67 | 40775 | 59516
5 | 13:13.42 | 4:42.40 | 59517 | 80706
6 | 17:56.07 | 4:19.73 | 80707 | 100204
7 | 22:16.05 | 5:01.65 | 100205 | 122844
8 | 27:17.70 | 2:37.15 | 122845 | 134634
9 | 29:55.10 | 4:32.60 | 134635 | 155094
10 | 34:27.70 | 4:39.57 | 155095 | 176076
11 | 39:07.52 | 5:30.15 | 176077 | 200841
12 | 44:37.67 | 4:30.28 | 200842 | 221119
13 | 49:08.20 | 4:10.35 | 221120 | 239904


Track 1

Filename C:\TTT\Steve Reid 's Bamboo Forest - Mysteries(DTS)\01 Mysteries.wav

Peak level 25.0 %
Track quality 100.0 %
Test CRC E02F88EC
Copy CRC E02F88EC
Track not present in AccurateRip database
Copy OK

Track 2

Filename C:\TTT\Steve Reid 's Bamboo Forest - Mysteries(DTS)\02 Sunrise

Celebration.wav

Peak level 25.0 %
Track quality 99.9 %
Test CRC 4F895131
Copy CRC 4F895131
Track not present in AccurateRip database
Copy OK

Track 3

Filename C:\TTT\Steve Reid 's Bamboo Forest - Mysteries(DTS)\03 Prelude to Mr.

Mystery.wav

Peak level 25.0 %
Track quality 98.5 %
Test CRC 25A27164
Copy CRC 25A27164
Track not present in AccurateRip database
Copy OK

Track 4

Filename C:\TTT\Steve Reid 's Bamboo Forest - Mysteries(DTS)\04 Mr. Mystery.wav

Peak level 25.0 %
Track quality 100.0 %
Test CRC E9646C29
Copy CRC E9646C29
Track not present in AccurateRip database
Copy OK

Track 5

Filename C:\TTT\Steve Reid 's Bamboo Forest - Mysteries(DTS)\05 Soul Mates.wav

Peak level 25.0 %
Track quality 100.0 %
Test CRC 6838787B
Copy CRC 6838787B
Track not present in AccurateRip database
Copy OK

Track 6

Filename C:\TTT\Steve Reid 's Bamboo Forest - Mysteries(DTS)\06 Hideaway of Love.wav

Peak level 25.0 %
Track quality 99.9 %
Test CRC EDF3683A
Copy CRC EDF3683A
Track not present in AccurateRip database
Copy OK

Track 7

Filename C:\TTT\Steve Reid 's Bamboo Forest - Mysteries(DTS)\07 Ancient Profiles.wav

Peak level 25.0 %
Track quality 100.0 %
Test CRC A10FE1B1
Copy CRC A10FE1B1
Track not present in AccurateRip database
Copy OK

Track 8

Filename C:\TTT\Steve Reid 's Bamboo Forest - Mysteries(DTS)\08 Spirit Path.wav

Peak level 25.0 %
Track quality 100.0 %
Test CRC 66BFDAB0
Copy CRC 66BFDAB0
Track not present in AccurateRip database
Copy OK

Track 9

Filename C:\TTT\Steve Reid 's Bamboo Forest - Mysteries(DTS)\09 Pyramid of the

Sun.wav

Peak level 25.0 %
Track quality 100.0 %
Test CRC BE855C6A
Copy CRC BE855C6A
Track not present in AccurateRip database
Copy OK

Track 10

Filename C:\TTT\Steve Reid 's Bamboo Forest - Mysteries(DTS)\10 Look to the Sky.wav

Peak level 25.0 %
Track quality 100.0 %
Test CRC 793564C4
Copy CRC 793564C4
Track not present in AccurateRip database
Copy OK

Track 11

Filename C:\TTT\Steve Reid 's Bamboo Forest - Mysteries(DTS)\11 Atlantis.wav

Peak level 25.0 %
Track quality 100.0 %
Test CRC 725F275F
Copy CRC 725F275F
Track not present in AccurateRip database
Copy OK

Track 12

Filename C:\TTT\Steve Reid 's Bamboo Forest - Mysteries(DTS)\12 City of Gold.wav

Peak level 25.0 %
Track quality 100.0 %
Test CRC 76252A8E
Copy CRC 76252A8E
Track not present in AccurateRip database
Copy OK

Track 13

Filename C:\TTT\Steve Reid 's Bamboo Forest - Mysteries(DTS)\13 Guardian of the

Falls.wav

Peak level 25.0 %
Track quality 100.0 %
Test CRC 8F412C73
Copy CRC 8F412C73
Track not present in AccurateRip database
Copy OK


None of the tracks are present in the AccurateRip database

No errors occurred

End of status report

Steve Reid's Bamboo Forest - Mysteries (1997) [DTS 5.1 Surround Sound]

Steve Reid's Bamboo Forest - Mysteries (1997) [DTS 5.1 Surround Sound]


Filesonic:
part 1 | part 2 | part 3 | part 4 | part 5 | part 6

HF:
part 1 | part 2 | part 3 | part 4 | part 5 | part 6

FileServe:
part 1 | part 2 | part 3 | part 4 | part 5 | part 6

pass: shsv

In case you encounter dead links, please send me a private message!

Visit my blog!