Stone Temple Pilots - Core (Remastered Super Deluxe Edition) (1992/2017) [Official Digital Download 24/96]

Posted By: Pisulik
Stone Temple Pilots - Core (Remastered Super Deluxe Edition) (1992/2017) [Official Digital Download 24/96]

Stone Temple Pilots - Core (Remastered Super Deluxe Edition) (1992/2017)
FLAC (tracks) 24-bit/44-96 kHz | Time - 222:53 minutes | 4,59 GB
Studio Master, Official Digital Download | Artwork: Front cover

This September, Rhino are to reissue a 25th anniversary, four-disc super deluxe edition of Stone Temple Pilots 1992 debut Core. The Grammy winning album has sold over 8 million copies in the US alone and amongst its 12-tracks are the singles Sex Type Thing, Plush and Wicked Garden. The super deluxe edition reissue is a 4CD set. It includes a newly remastered version of the original album, and a very impressive amount of unreleased material. In fact, across the three bonus CDs is more than two hours of unheard demos and unissued live performances, including the band’s performance on MTV Unplugged.

Tracklist:

CD1

01. Dead & Bloated (Remastered)
02. Sex Type Thing (Remastered)
03. Wicked Garden (Remastered)
04. No Memory (Remastered)
05. Sin (Remastered)
06. Naked Sunday (Remastered)
07. Creep (Remastered)
08. Piece of Pie (Remastered)
09. Plush (Remastered)
10. Wet My Bed (Remastered)
11. Crackerman (Remastered)
12. Where The River Goes (Remastered)

foobar2000 1.3.7 / Dynamic Range Meter 1.1.1
log date: 2017-10-14 06:31:12

––––––––––––––––––––––––––––––––––––––––
Analyzed: Stone Temple Pilots / Core (Remastered Super Deluxe Edition)
––––––––––––––––––––––––––––––––––––––––

DR Peak RMS Duration Track
––––––––––––––––––––––––––––––––––––––––
DR8 -0.32 dB -9.98 dB 5:10 01-Dead & Bloated (Remastered)
DR7 -1.15 dB -9.15 dB 3:38 02-Sex Type Thing (Remastered)
DR7 -0.55 dB -9.10 dB 4:05 03-Wicked Garden (Remastered)
DR9 -4.96 dB -17.26 dB 1:20 04-No Memory (Remastered)
DR8 -0.95 dB -11.10 dB 6:05 05-Sin (Remastered)
DR8 -0.82 dB -10.24 dB 3:50 06-Naked Sunday (Remastered)
DR9 -0.68 dB -12.03 dB 5:34 07-Creep (Remastered)
DR8 -0.86 dB -9.51 dB 5:24 08-Piece of Pie (Remastered)
DR7 -0.49 dB -9.81 dB 5:14 09-Plush (Remastered)
DR14 -3.34 dB -20.02 dB 1:37 10-Wet My Bed (Remastered)
DR7 -0.82 dB -10.08 dB 3:14 11-Crackerman (Remastered)
DR8 -0.29 dB -10.13 dB 8:30 12-Where The River Goes (Remastered)
––––––––––––––––––––––––––––––––––––––––

Number of tracks: 12
Official DR value: DR8

Samplerate: 96000 Hz
Channels: 2
Bits per sample: 24
Bitrate: 3393 kbps
Codec: FLAC
================================================================================


CD2

01. Only Dying (Demo)
02. Wicked Garden (Demo)
03. Naked Sunday (Demo)
04. Where The River Goes (Demo)
05. Dead & Bloated (Demo)
06. Sex Type Thing (Demo)
07. Sin (Demo)
08. Creep (Demo)
09. Plush (Demo)
10. Sex Type Thing (Swing Type Version) [Remastered]
11. Plush (Acoustic Type Version) [Remastered]
12. Creep (New Version) [Remastered]
13. Plush (Acoustic From MTV Headbanger's Ball, Take 1) [Live] [Remastered]

foobar2000 1.3.7 / Dynamic Range Meter 1.1.1
log date: 2017-10-14 06:32:21

––––––––––––––––––––––––––––––––––––––––
Analyzed: Stone Temple Pilots / Core (Remastered Super Deluxe Edition)
––––––––––––––––––––––––––––––––––––––––

DR Peak RMS Duration Track
––––––––––––––––––––––––––––––––––––––––
DR10 -0.36 dB -13.33 dB 5:20 01-Only Dying (Demo)
DR7 -0.10 dB -8.23 dB 3:49 02-Wicked Garden (Demo)
DR7 -0.38 dB -9.16 dB 3:42 03-Naked Sunday (Demo)
DR8 -0.10 dB -9.92 dB 7:17 04-Where The River Goes (Demo)
DR8 -0.55 dB -9.57 dB 5:04 05-Dead & Bloated (Demo)
DR9 0.00 dB -10.00 dB 3:24 06-Sex Type Thing (Demo)
DR10 -0.32 dB -11.62 dB 6:15 07-Sin (Demo)
DR10 -0.10 dB -11.15 dB 5:40 08-Creep (Demo)
DR10 -0.61 dB -12.28 dB 5:05 09-Plush (Demo)
DR11 -0.25 dB -13.73 dB 4:23 10-Sex Type Thing (Swing Type Version) [Remastered]
DR9 -1.00 dB -13.26 dB 4:49 11-Plush (Acoustic Type Version) [Remastered]
DR10 -0.46 dB -12.57 dB 5:34 12-Creep (New Version) [Remastered]
DR10 -0.98 dB -13.12 dB 5:28 13-Plush (Acoustic From MTV Headbanger's Ball, Take 1) [Live] [Remastered]
––––––––––––––––––––––––––––––––––––––––

Number of tracks: 13
Official DR value: DR9

Samplerate: 96000 Hz
Channels: 2
Bits per sample: 24
Bitrate: 2860 kbps
Codec: FLAC
================================================================================


CD3

01. Crackerman (Live At Castaic Lake Natural Amphitheater, 7/2/93)
02. Wicked Garden (Live At Castaic Lake Natural Amphitheater, 7/2/93)
03. No Memory (Live At Castaic Lake Natural Amphitheater, 7/2/93)
04. Sin (Live At Castaic Lake Natural Amphitheater, 7/2/93)
05. Plush (Live At Castaic Lake Natural Amphitheater, 7/2/93)
06. Where The River Goes (Live At Castaic Lake Natural Amphitheater, 7/2/93)
07. Sex Type Thing (Live At Castaic Lake Natural Amphitheater, 7/2/93)
08. Wet My Bed (Live At Castaic Lake Natural Amphitheater, 7/2/93)
09. Naked Sunday (Live At Castaic Lake Natural Amphitheater, 7/2/93)
10. Wicked Garden (Live At The Reading Festival '93, England 8/27/93)
11. No Memory (Live At The Reading Festival '93, England 8/27/93)
12. Sin (Live At The Reading Festival '93, England 8/27/93)
13. Lounge Fly (Live At The Reading Festival '93, England 8/27/93)
14. Dead & Bloated (Live At The Reading Festival '93, England 8/27/93)
15. Sex Type Thing (Live At The Reading Festival '93, England 8/27/93)
16. Naked Sunday (Live At The Reading Festival '93, England 8/27/93)

foobar2000 1.3.7 / Dynamic Range Meter 1.1.1
log date: 2017-10-14 06:33:13

––––––––––––––––––––––––––––––––––––––––
Analyzed: Stone Temple Pilots / Core (Remastered Super Deluxe Edition)
––––––––––––––––––––––––––––––––––––––––

DR Peak RMS Duration Track
––––––––––––––––––––––––––––––––––––––––
DR8 -0.71 dB -9.49 dB 3:30 01-Crackerman (Live At Castaic Lake Natural Amphitheater, 7/2/93)
DR8 -0.04 dB -9.55 dB 4:41 02-Wicked Garden (Live At Castaic Lake Natural Amphitheater, 7/2/93)
DR8 -1.36 dB -11.52 dB 1:14 03-No Memory (Live At Castaic Lake Natural Amphitheater, 7/2/93)
DR8 -0.67 dB -9.75 dB 6:25 04-Sin (Live At Castaic Lake Natural Amphitheater, 7/2/93)
DR7 -0.42 dB -9.00 dB 5:06 05-Plush (Live At Castaic Lake Natural Amphitheater, 7/2/93)
DR8 -0.53 dB -9.80 dB 9:11 06-Where The River Goes (Live At Castaic Lake Natural Amphitheater, 7/2/93)
DR8 -0.58 dB -9.38 dB 4:12 07-Sex Type Thing (Live At Castaic Lake Natural Amphitheater, 7/2/93)
DR8 0.00 dB -10.81 dB 2:49 08-Wet My Bed (Live At Castaic Lake Natural Amphitheater, 7/2/93)
DR8 -0.60 dB -9.49 dB 4:21 09-Naked Sunday (Live At Castaic Lake Natural Amphitheater, 7/2/93)
DR8 -0.67 dB -9.83 dB 4:32 10-Wicked Garden (Live At The Reading Festival '93, England 8/27/93)
DR9 -1.83 dB -13.02 dB 1:15 11-No Memory (Live At The Reading Festival '93, England 8/27/93)
DR8 -0.78 dB -10.09 dB 6:58 12-Sin (Live At The Reading Festival '93, England 8/27/93)
DR8 0.00 dB -8.90 dB 6:07 13-Lounge Fly (Live At The Reading Festival '93, England 8/27/93)
DR8 0.00 dB -9.34 dB 4:47 14-Dead & Bloated (Live At The Reading Festival '93, England 8/27/93)
DR7 0.00 dB -8.18 dB 4:01 15-Sex Type Thing (Live At The Reading Festival '93, England 8/27/93)
DR7 0.00 dB -8.64 dB 4:15 16-Naked Sunday (Live At The Reading Festival '93, England 8/27/93)
––––––––––––––––––––––––––––––––––––––––

Number of tracks: 16
Official DR value: DR8

Samplerate: 96000 Hz
Channels: 2
Bits per sample: 24
Bitrate: 3147 kbps
Codec: FLAC
================================================================================


CD4

01. Crackerman (Live) [MTV Unplugged, 11/17/93]
02. Creep (Live) [MTV Unplugged, 11/17/93]
03. Andy Warhol (Live) [MTV Unplugged, 11/17/93]
04. Plush (Live) [MTV Unplugged, 11/17/93]
05. Big Empty (Live) [MTV Unplugged, 11/17/93]
06. Wicked Garden (Live) [MTV Unplugged, 11/17/93]
07. Sex Type Thing (Live) [MTV Unplugged, 11/17/93]

foobar2000 1.3.7 / Dynamic Range Meter 1.1.1
log date: 2017-10-14 06:29:48

––––––––––––––––––––––––––––––––––––––––
Analyzed: Stone Temple Pilots / Core (Remastered Super Deluxe Edition)
––––––––––––––––––––––––––––––––––––––––

DR Peak RMS Duration Track
––––––––––––––––––––––––––––––––––––––––
DR9 -0.99 dB -11.02 dB 2:53 03-Andy Warhol (Live) [MTV Unplugged, 11/17/93]
DR9 -0.78 dB -11.75 dB 4:58 05-Big Empty (Live) [MTV Unplugged, 11/17/93]
DR8 0.00 dB -10.13 dB 4:19 06-Wicked Garden (Live) [MTV Unplugged, 11/17/93]
––––––––––––––––––––––––––––––––––––––––

Number of tracks: 3
Official DR value: DR8

Samplerate: 44100 Hz
Channels: 2
Bits per sample: 24
Bitrate: 1687 kbps
Codec: FLAC
================================================================================

––––––––––––––––––––––––––––––––––––––––
Analyzed: Stone Temple Pilots / Core (Remastered Super Deluxe Edition)
––––––––––––––––––––––––––––––––––––––––

DR Peak RMS Duration Track
––––––––––––––––––––––––––––––––––––––––
DR9 -0.10 dB -10.04 dB 4:05 01-Crackerman (Live) [MTV Unplugged, 11/17/93]
DR9 -0.12 dB -10.90 dB 5:49 02-Creep (Live) [MTV Unplugged, 11/17/93]
DR9 -0.16 dB -11.77 dB 5:47 04-Plush (Live) [MTV Unplugged, 11/17/93]
DR8 -0.32 dB -10.76 dB 4:29 07-Sex Type Thing (Live) [MTV Unplugged, 11/17/93]
––––––––––––––––––––––––––––––––––––––––

Number of tracks: 4
Official DR value: DR9

Samplerate: 48000 Hz
Channels: 2
Bits per sample: 24
Bitrate: 1757 kbps
Codec: FLAC
================================================================================


All thanks go to the original releaser