Subcategories

Chamber Orchestra of Europe, Alexander Janiczek - Stravinsky: Apollon musagete & Pulcinella Suite (2009) [24/192]

Posted By: SERTiL
Chamber Orchestra of Europe, Alexander Janiczek - Stravinsky: Apollon musagete & Pulcinella Suite (2009) [24/192]

Chamber Orchestra of Europe, Alexander Janiczek - Stravinsky: Apollon musagete & Pulcinella Suite (2009)
FLAC (tracks) 24-bit/192 kHz | Time - 53:42 minutes | 1.88 GB
Studio Master, Official Digital Download | Artwork: Digital booklet

The Chamber Orchestra of Europe performs Stravinsky's Apollon Musagète and Pulcinella Suite, repertoire that demands the fresh and energetic delivery for which the COE is renowned. The COE deliver the 'wonderful freshness' Stravinsky himself envisioned in Apollon Musagète with their bright and spirited performance. The Guardian commented: 'In Stravinsky's Apollon Musagète each and every player contributed to the distinctive, rich-toned sonority.'

The Pulcinella Suite is a ballet based on some of Pergolesi's most memorable music. The COE has recorded the more unusual 1949 'revised' version of the 1922 concert suite which is in eight sections and performed without voices. The Independent commented: 'Stravinsky's Pulcinella Suite brimmed over with the energy and insight of first-rate musicians discovering every opportunity such sunny music offered them.'

The COE recorded this album at Église Maronite Notre-Dame Du Liban, Paris, in November 2008. They performed this Stravinsky programme at Cité de la musique, Paris, Konzerthaus, Vienna and Philharmonie, Luxembourg to widespread critical acclaim.

TRACKLIST

Igor Fyodorovich Stravinsky (1882-1971)

01. Apollon Musagete - Naissance d’Apollon {5:06}
02. Apollon Musagete - Variation d’Apollon {2:51}
03. Apollon Musagete - Pas d’action {4:45}
04. Apollon Musagete - Variation de Calliope {1:23}
05. Apollon Musagete - Variation de Polymnie {1:24}
06. Apollon Musagete - Variation de Terpsichore {1:33}
07. Apollon Musagete - Variation d’Apollon {2:26}
08. Apollon Musagete - Pas de deux {4:05}
09. Apollon Musagete - Coda (Apollon et les Muses) {3:33}
10. Apollon Musagete - Apotheose {3:59}
11. Pulcinella Suite - I. Sinfonia {1:59}
12. Pulcinella Suite - II. Serenata {3:06}
13. Pulcinella Suite - III. a) Scherzino {1:52}
14. Pulcinella Suite - III. b) Allegro {1:02}
15. Pulcinella Suite - III. c) Andantino {1:28}
16. Pulcinella Suite - IV. Tarantella {1:55}
17. Pulcinella Suite - V. Toccata {0:58}
18. Pulcinella Suite - VI. Gavotta {4:01}
19. Pulcinella Suite - VII. Vivo {1:38}
20. Pulcinella Suite - VIII. a) Menuetto {2:40}
21. Pulcinella Suite - VIII. b) Finale {2:07}

PERSONNEL
Chamber Orchestra of Europe
Alexander Janiczek director/violin

foobar2000 1.3.7 / Dynamic Range Meter 1.1.1
log date: 2017-05-23 21:05:53

––––––––––––––––––––––––––––––––––––––––
Analyzed: Chamber Orchestra of Europe / Stravinsky Apollon musagète & Pulcinella Suite
––––––––––––––––––––––––––––––––––––––––

DR Peak RMS Duration Track
––––––––––––––––––––––––––––––––––––––––
DR14 -4.20 dB -25.17 dB 5:06 01-Apollon Musagete - Naissance d’Apollon
DR13 -10.18 dB -31.30 dB 2:51 02-Apollon Musagete - Variation d’Apollon
DR13 -9.91 dB -28.54 dB 4:45 03-Apollon Musagete - Pas d’action
DR12 -11.35 dB -29.74 dB 1:23 04-Apollon Musagete - Variation de Calliope
DR13 -6.82 dB -26.30 dB 1:24 05-Apollon Musagete - Variation de Polymnie
DR12 -8.15 dB -26.74 dB 1:33 06-Apollon Musagete - Variation de Terpsichore
DR13 -3.25 dB -23.74 dB 2:26 07-Apollon Musagete - Variation d’Apollon
DR11 -13.40 dB -32.50 dB 4:05 08-Apollon Musagete - Pas de deux
DR15 -3.19 dB -22.58 dB 3:33 09-Apollon Musagete - Coda (Apollon et les Muses)
DR12 -9.75 dB -27.28 dB 3:59 10-Apollon Musagete - Apotheose
DR13 -4.72 dB -22.81 dB 1:59 11-Pulcinella Suite - I. Sinfonia
DR11 -14.61 dB -30.24 dB 3:06 12-Pulcinella Suite - II. Serenata
DR14 -4.00 dB -25.05 dB 1:52 13-Pulcinella Suite - III. a) Scherzino
DR14 -4.08 dB -24.06 dB 1:02 14-Pulcinella Suite - III. b) Allegro
DR10 -10.70 dB -29.13 dB 1:28 15-Pulcinella Suite - III. c) Andantino
DR13 -4.04 dB -24.24 dB 1:55 16-Pulcinella Suite - IV. Tarantella
DR14 -4.32 dB -23.56 dB 0:58 17-Pulcinella Suite - V. Toccata
DR13 -11.45 dB -28.72 dB 4:01 18-Pulcinella Suite - VI. Gavotta
DR14 -1.96 dB -20.77 dB 1:38 19-Pulcinella Suite - VII. Vivo
DR14 -2.33 dB -23.61 dB 2:40 20-Pulcinella Suite - VIII. a) Menuetto
DR13 -0.25 dB -19.15 dB 2:07 21-Pulcinella Suite - VIII. b) Finale
––––––––––––––––––––––––––––––––––––––––

Number of tracks: 21
Official DR value: DR13

Samplerate: 192000 Hz
Channels: 2
Bits per sample: 24
Bitrate: 5180 kbps
Codec: FLAC
================================================================================


Chamber Orchestra of Europe, Alexander Janiczek - Stravinsky: Apollon musagete & Pulcinella Suite (2009) [24/192]


Thanks to the Original customer.