Leonard Bernstein - Stravinsky: L'Histoire du soldat & Octet (Remastered) (2017) [Official Digital Download 24/96]

Posted By: SERTiL
Leonard Bernstein - Stravinsky: L'Histoire du soldat & Octet (Remastered) (2017) [Official Digital Download 24/96]

Leonard Bernstein - Stravinsky: L'Histoire du soldat & Octet - Milhaud: La Création du monde, Op. 81 - Bernstein: Afterthought (Remastered) (2017)
FLAC (tracks) 24-bit/96 kHz | Time - 61:31 minutes | 599 MB
Studio Master, Official Digital Download | Artwork: Front Cover

It was in these terms that Ferruccio Busoni greeted the publication in 1908 of the 14 Bagatelles, in which Béla Bartók conveyed the violent aesthetic impact of his discovery of authentic Hungarian peasant music. Over the next 20 years, up to the magisterial Sonata of 1926, he indefatigably refined an innovative pianistic language: pungent, dissonant, percussive, with multiple new playing techniques, that was to influence the entire 20th century. A master of every style, from Haydn to Boulez by way of Chopin and Chabrier, Alain Planès stands revealed here as a Bartókian of the front rank.

Tracklist:

Igor Feodorovich Stravinsky (1882-1971)

01. The Soldier's Tale (Excerpts): The Soldier's March
02. The Soldier's Tale (Excerpts): The Soldier's Tale (Excerpts): Music to Scene 1
03. The Soldier's Tale (Excerpts): The Soldier's Tale (Excerpts): The Royal March
04. The Soldier's Tale (Excerpts): The Soldier's Tale (Excerpts): Music to Scene 2
05. The Soldier's Tale (Excerpts): The Soldier's Tale (Excerpts): The Little Concert
06. The Soldier's Tale (Excerpts): The Soldier's Tale (Excerpts): 3 Dances: Tango-Waltz-Ragtime
07. The Soldier's Tale (Excerpts): The Soldier's Tale (Excerpts): Little Chorale
08. The Soldier's Tale (Excerpts): The Soldier's Tale (Excerpts): The Devil's Dance
09. The Soldier's Tale (Excerpts): The Soldier's Tale (Excerpts): The Great Chorale
10. The Soldier's Tale (Excerpts): Triumphal March of the Devil
11. Octet for Wind Instruments: Octet for Wind Instruments: I. Sinfonia
12. Octet for Wind Instruments: Octet for Wind Instruments: II. Tema con variazioni
13. Octet for Wind Instruments: Octet for Wind Instruments: III. Finale

Darius Milhaud (1892-1974)

14. La création du monde, Op. 81 (Remastered)

Leonard Bernstein (1918-90)

15. Afterthought-Study for the Ballet "Facsimile" (Remastered)

Personnel:
Charles Smith (percussion), Georges Moleux (bass), Jacob Raichman (trombone), Raymond Allard (bassoon), Richard Burgin (violin), Viktor Polatschek (clarinet), Roger Voisin (trumpet), John Coffey (trombone), Georges Mager (trumpet), Georges Laurent (flute), Manuel Valerio (clarinet), Ernst Panenka (bassoon), Marcel Lafosse (trumpet), Leonard Bernstein;Blanche Thebom, Blanche Thebom (mezzo-soprano), Leonard Bernstein (piano).

foobar2000 1.3.7 / Dynamic Range Meter 1.1.1
log date: 2017-12-25 17:51:08

––––––––––––––––––––––––––––––––––––––––
Analyzed: Leonard Bernstein;Blanche Thebom / Stravinsky: L'Histoire du soldat & Octet - Milhaud: La Création du monde, Op. 81 - Bernstein: Afterthought (Remastered) (1)
Leonard Bernstein / Stravinsky: L'Histoire du soldat & Octet - Milhaud: La Création du monde, Op. 81 - Bernstein: Afterthought (Remastered) (2-15)
––––––––––––––––––––––––––––––––––––––––

DR Peak RMS Duration Track
––––––––––––––––––––––––––––––––––––––––
DR11 -1.14 dB -18.92 dB 3:23 15-Afterthought-Study for the Ballet "Facsimile" (Remastered)
DR12 -0.74 dB -18.32 dB 1:42 01-The Soldier's Tale (Excerpts): The Soldier's March
DR13 -6.59 dB -25.00 dB 2:51 02-The Soldier's Tale (Excerpts): The Soldier's Tale (Excerpts): Music to Scene 1
DR15 -0.55 dB -20.10 dB 2:48 03-The Soldier's Tale (Excerpts): The Soldier's Tale (Excerpts): The Royal March
DR10 -10.19 dB -26.67 dB 2:37 04-The Soldier's Tale (Excerpts): The Soldier's Tale (Excerpts): Music to Scene 2
DR14 -2.52 dB -19.87 dB 3:20 05-The Soldier's Tale (Excerpts): The Soldier's Tale (Excerpts): The Little Concert
DR15 -3.71 dB -22.59 dB 6:24 06-The Soldier's Tale (Excerpts): The Soldier's Tale (Excerpts): 3 Dances: Tango-Waltz-Ragtime
DR10 -3.53 dB -15.60 dB 0:40 07-The Soldier's Tale (Excerpts): The Soldier's Tale (Excerpts): Little Chorale
DR12 -1.55 dB -18.05 dB 1:28 08-The Soldier's Tale (Excerpts): The Soldier's Tale (Excerpts): The Devil's Dance
DR11 -4.29 dB -21.00 dB 2:55 09-The Soldier's Tale (Excerpts): The Soldier's Tale (Excerpts): The Great Chorale
DR14 -1.13 dB -18.52 dB 2:14 10-The Soldier's Tale (Excerpts): Triumphal March of the Devil
DR13 -1.58 dB -17.88 dB 4:03 11-Octet for Wind Instruments: Octet for Wind Instruments: I. Sinfonia
DR12 -0.72 dB -18.48 dB 7:48 12-Octet for Wind Instruments: Octet for Wind Instruments: II. Tema con variazioni
DR13 -1.98 dB -19.12 dB 3:37 13-Octet for Wind Instruments: Octet for Wind Instruments: III. Finale
DR14 -0.39 dB -18.80 dB 15:51 14-La création du monde, Op. 81 (Remastered)
––––––––––––––––––––––––––––––––––––––––

Number of tracks: 15
Official DR value: DR13

Samplerate: 96000 Hz
Channels: 2
Bits per sample: 24
Bitrate: 1364 kbps
Codec: FLAC
================================================================================


Thanks to the Original customer.