Lucerne Festival Orchestra & Riccardo Chailly - Stravinsky: Le sacre du printemps - Chant funèbre (2018) [24/96]

Posted By: SERTiL
Lucerne Festival Orchestra & Riccardo Chailly - Stravinsky: Le sacre du printemps - Chant funèbre (2018) [24/96]

Lucerne Festival Orchestra & Riccardo Chailly - Stravinsky: Le sacre du printemps - Chant funèbre (2018)
FLAC (tracks) 24-bit/96 kHz | Time - 70:40 minutes | 1.16 GB
Studio Master, Official Digital Download | Artwork: Digital Booklet

Decca has been granted exclusive worldwide rights to make the first recording of Chant Funèbre, the piece everyone believed lost forever.

Riccardo Chailly makes his debut recording with the Lucerne Festival Orchestra, marking the beginning of a major new partnership.

The album restores lost work Chant Funèbre in its original Stravinsky opus sequence and adds a sonically spectacular Sacre du Printemps (The Rite of Spring).

“A dazzling programme of Stravinsky. A new era has well and truly begun for the Lucerne Festival Orchestra”. The Times



Tracklist:

Igor Feodorovich Stravinsky (1882-1971)

01. Stravinsky: Chant funèbre, Op.5
02. Stravinsky: Feu d'artifice, Op.4
03. Stravinsky: Scherzo fantastique, Op.3
04. Stravinsky: The Faun and The Shepherdess, Op. 2-1. La Bergère
05. Stravinsky: The Faun and The Shepherdess, Op. 2-2. Le Faune
06. Stravinsky: The Faun and The Shepherdess, Op. 2-3. Le Torrent
07. Stravinsky: Le Sacre du Printemps / Pt 1: L'Adoration de la Terre-1. Introduction
08. Stravinsky: Le Sacre du Printemps / Pt 1: L'Adoration de la Terre-2. Les augures printaniers-Danses des adolescentes
09. Stravinsky: Le Sacre du Printemps / Pt 1: L'Adoration de la Terre-3. Jeu du rapt
10. Stravinsky: Le Sacre du Printemps / Pt 1: L'Adoration de la Terre-4. Rondes printanières
11. Stravinsky: Le Sacre du Printemps / Pt 1: L'Adoration de la Terre-5. Jeux des cités
12. Stravinsky: Le Sacre du Printemps / Pt 1: L'Adoration de la Terre-6a. Cortège du sage
13. Stravinsky: Le Sacre du Printemps / Pt 1: L'Adoration de la Terre-6b. Le sage
14. Stravinsky: Le Sacre du Printemps / Pt 1: L'Adoration de la Terre-7. Danse de la terre
15. Stravinsky: Le Sacre du Printemps / Pt 2: Le Sacrifice-1. Introduction
16. Stravinsky: Le Sacre du Printemps / Pt 2: Le Sacrifice-2. Cercles mysteriéux des adolescentes
17. Stravinsky: Le Sacre du Printemps / Pt 2: Le Sacrifice-3. Glorification d'élue
18. Stravinsky: Le Sacre du Printemps / Pt 2: Le Sacrifice-4. Évocation des ancêtres
19. Stravinsky: Le Sacre du Printemps / Pt 2: Le Sacrifice-5. Action rituelle des ancêtres
20. Stravinsky: Le Sacre du Printemps / Pt 2: Le Sacrifice-6. Danse sacrale: l'élue

Personnel:
Lucerne Festival Orchestra
Riccardo Chailly (conductor)
Sophie Koch (soprano)

foobar2000 1.3.7 / Dynamic Range Meter 1.1.1
log date: 2018-01-12 13:08:23

––––––––––––––––––––––––––––––––––––––––
Analyzed: Lucerne Festival Orchestra & Riccardo Chailly / Stravinsky: Le sacre du printemps - Chant funèbre (1-10)
Lucerne Festival Orchestra & Sophie Koch & Riccardo Chailly / Stravinsky: Le sacre du printemps - Chant funèbre (11)
Riccardo Chailly & Lucerne Festival Orchestra / Stravinsky: Le sacre du printemps - Chant funèbre (12-18)
Riccardo Chailly & Sophie Koch & Lucerne Festival Orchestra / Stravinsky: Le sacre du printemps - Chant funèbre (19)
Sophie Koch & Lucerne Festival Orchestra & Riccardo Chailly / Stravinsky: Le sacre du printemps - Chant funèbre (20)
––––––––––––––––––––––––––––––––––––––––

DR Peak RMS Duration Track
––––––––––––––––––––––––––––––––––––––––
DR17 -0.68 dB -25.01 dB 10:30 01-Stravinsky: Chant funèbre, Op.5
DR15 -0.32 dB -20.60 dB 3:55 02-Stravinsky: Feu d'artifice, Op.4
DR16 -1.33 dB -26.18 dB 11:51 03-Stravinsky: Scherzo fantastique, Op.3
DR13 -0.32 dB -18.86 dB 3:26 08-Stravinsky: Le Sacre du Printemps / Pt 1: L'Adoration de la Terre-2. Les augures printaniers-Danses des adolescentes
DR12 -0.32 dB -16.10 dB 1:20 09-Stravinsky: Le Sacre du Printemps / Pt 1: L'Adoration de la Terre-3. Jeu du rapt
DR11 -0.32 dB -14.80 dB 1:15 14-Stravinsky: Le Sacre du Printemps / Pt 1: L'Adoration de la Terre-7. Danse de la terre
DR15 -7.15 dB -30.14 dB 4:10 15-Stravinsky: Le Sacre du Printemps / Pt 2: Le Sacrifice-1. Introduction
DR16 -0.33 dB -23.45 dB 3:19 16-Stravinsky: Le Sacre du Printemps / Pt 2: Le Sacrifice-2. Cercles mysteriéux des adolescentes
DR11 -0.32 dB -13.88 dB 1:26 17-Stravinsky: Le Sacre du Printemps / Pt 2: Le Sacrifice-3. Glorification d'élue
DR12 -0.33 dB -19.16 dB 3:44 19-Stravinsky: Le Sacre du Printemps / Pt 2: Le Sacrifice-5. Action rituelle des ancêtres
DR16 -0.51 dB -22.29 dB 3:54 06-Stravinsky: The Faun and The Shepherdess, Op. 2-3. Le Torrent
DR15 -3.53 dB -25.47 dB 3:36 07-Stravinsky: Le Sacre du Printemps / Pt 1: L'Adoration de la Terre-1. Introduction
DR13 -0.32 dB -18.65 dB 3:31 10-Stravinsky: Le Sacre du Printemps / Pt 1: L'Adoration de la Terre-4. Rondes printanières
DR13 -0.32 dB -16.04 dB 1:50 11-Stravinsky: Le Sacre du Printemps / Pt 1: L'Adoration de la Terre-5. Jeux des cités
DR10 -0.32 dB -13.52 dB 0:41 12-Stravinsky: Le Sacre du Printemps / Pt 1: L'Adoration de la Terre-6a. Cortège du sage
DR8 -26.76 dB -40.36 dB 0:23 13-Stravinsky: Le Sacre du Printemps / Pt 1: L'Adoration de la Terre-6b. Le sage
DR11 -0.32 dB -15.38 dB 0:39 18-Stravinsky: Le Sacre du Printemps / Pt 2: Le Sacrifice-4. Évocation des ancêtres
DR11 -0.32 dB -14.48 dB 4:34 20-Stravinsky: Le Sacre du Printemps / Pt 2: Le Sacrifice-6. Danse sacrale: l'élue
DR14 -1.01 dB -24.21 dB 3:18 05-Stravinsky: The Faun and The Shepherdess, Op. 2-2. Le Faune
DR12 -5.79 dB -25.48 dB 2:57 04-Stravinsky: The Faun and The Shepherdess, Op. 2-1. La Bergère
––––––––––––––––––––––––––––––––––––––––

Number of tracks: 20
Official DR value: DR13

Samplerate: 96000 Hz
Channels: 2
Bits per sample: 24
Bitrate: 2239 kbps
Codec: FLAC
================================================================================


Thanks to the Original customer.