Heath Quartet - Tchaikovsky: String Quartets Nos. 1 & 3 (2016) [Official Digital Download 24/96]

Posted By: SERTiL
Heath Quartet - Tchaikovsky: String Quartets Nos. 1 & 3 (2016) [Official Digital Download 24/96]

Heath Quartet - Tchaikovsky: String Quartets Nos. 1 & 3 (2016)
FLAC (tracks) 24-bit/96 kHz | Time - 66:18 minutes | 1.14 GB
Studio Master, Official Digital Download | Artwork: Digital booklet

The Heath Quartet makes its harmonia mundi début with this contrasting programme of Tchaikovsky’s String Quartets: his Quartet No. 1 (famed for its plaintive “Andante cantabile”) and the tempestuous No. 3 (dedicated to the memory of Ferdinand Laub).

Since being selected by YCAT and winning 1st Prize at the Tromp Competition in 2008 the Heath Quartet has forged a strong international presence. In 2011 they were awarded a prestigious Borletti-Buitoni Special Ensemble Scholarship and undertook complete Beethoven cycles at the Facyl Festival in Salamanca and in Edinburgh. Highlights over the last year have included recitals at Wigmore Hall as part of the Emerging Talent scheme, including the premiere of a new work by Luke Bedford and collaborations with Stephen Hough and Ian Bostridge. Future engagements include complete Tippett and Bartók cycles, and a recital with the soprano Anna Caterina Antonacci at Wigmore Hall, debut recitals at the Louvre and Musée d’Orsay in Paris, return visits to the Concertgebouw and their USA debut.

TRACKLIST

Piotr Ilyich Tchaikovsky (1840-93)

01. String Quartet No. 1 in D Major, Op. 11: I. Moderato e semplice
02. String Quartet No. 1 in D Major, Op. 11: II. Andante cantabile
03. String Quartet No. 1 in D Major, Op. 11: III. Scherzo. Allegro non tanto e con fuoco
04. String Quartet No. 1 in D Major, Op. 11: IV. Finale. Allegro giusto
05. String Quartet No. 3 in E-Flat Minor, Op. 30: I. Andante sostenuto-Allegro moderato
06. String Quartet No. 3 in E-Flat Minor, Op. 30: II. Allegretto vivo e scherzando
07. String Quartet No. 3 in E-Flat Minor, Op. 30: III. Andante funebre e doloroso, ma con moto
08. String Quartet No. 3 in E-Flat Minor, Op. 30: IV. Finale. Allegro non troppo e risoluto

foobar2000 1.3.7 / Dynamic Range Meter 1.1.1
log date: 2017-09-15 23:04:11

––––––––––––––––––––––––––––––––––––––––
Analyzed: Heath Quartet / Tchaikovsky: String Quartets Nos. 1 & 3
––––––––––––––––––––––––––––––––––––––––

DR Peak RMS Duration Track
––––––––––––––––––––––––––––––––––––––––
DR15 -0.06 dB -20.12 dB 11:09 01-String Quartet No. 1 in D Major, Op. 11: I. Moderato e semplice
DR15 -7.18 dB -28.39 dB 6:34 02-String Quartet No. 1 in D Major, Op. 11: II. Andante cantabile
DR15 -1.05 dB -20.56 dB 3:58 03-String Quartet No. 1 in D Major, Op. 11: III. Scherzo. Allegro non tanto e con fuoco
DR17 0.00 dB -20.87 dB 9:23 04-String Quartet No. 1 in D Major, Op. 11: IV. Finale. Allegro giusto
DR15 -0.68 dB -21.19 dB 15:24 05-String Quartet No. 3 in E-Flat Minor, Op. 30: I. Andante sostenuto-Allegro moderato
DR14 -1.28 dB -21.44 dB 3:56 06-String Quartet No. 3 in E-Flat Minor, Op. 30: II. Allegretto vivo e scherzando
DR13 -4.51 dB -23.19 dB 9:54 07-String Quartet No. 3 in E-Flat Minor, Op. 30: III. Andante funebre e doloroso, ma con moto
DR14 -0.09 dB -19.56 dB 6:03 08-String Quartet No. 3 in E-Flat Minor, Op. 30: IV. Finale. Allegro non troppo e risoluto
––––––––––––––––––––––––––––––––––––––––

Number of tracks: 8
Official DR value: DR15

Samplerate: 96000 Hz
Channels: 2
Bits per sample: 24
Bitrate: 2555 kbps
Codec: FLAC
================================================================================


Thanks to the Original customer.