Subcategories

Orchestra of St. Luke's & Pablo Heras-Casado - Tchaikovsky: Symphony No. 1, Op. 13 & The Tempest, Op. 18 (2016) [24/96]

Posted By: SERTiL
Orchestra of St. Luke's & Pablo Heras-Casado - Tchaikovsky: Symphony No. 1, Op. 13 & The Tempest, Op. 18 (2016) [24/96]

Orchestra of St. Luke's & Pablo Heras-Casado - Tchaikovsky: Symphony No. 1, Op. 13 & The Tempest, Op. 18 (2016)
FLAC (tracks) 24-bit/96 kHz | Time - 68:18 minutes | 1.16 GB
Studio Master, Official Digital Download | Artwork: Digital booklet

Pablo Heras-Casado enjoys an unusually varied conducting career—encompassing the great symphonic and operatic repertoire, historically informed performance and cutting-edge contemporary scores. He has served as Principal Conductor of Orchestra of St. Luke’s since 2011, now extended to September 2017. OSL began as a chamber ensemble based at The Church of St. Luke in the Fields in Greenwich Village. Today, St. Luke’s Chamber Ensemble consists of 21 virtuoso artists who perform a diverse repertoire and make up OSL’s artistic core. harmonia mundi are proud to release OSL's debut album for the label featuring two of Tchaikovsky's earliest notable works, both of which are dramatic and vibrant: Symphony No. 1, 'Winter Dreams' and 'The Tempest', a sprawling and turbulent seascape.

TRACKLIST

Pyotr Il’ych Tchaikovsky (1840-1893)

Symphony No. 1 in G Minor, Op. 13 Winter Daydreams
1 I. Dreams of a Winter Journey. Allegro tranquillo 11:24
2 II. Land of Desolation, Land, of Mists. Adagio cantabile ma non tanto 12:05
3 III. Scherzo. Allegro scherzando giocoso 08:03
4 IV. Finale. Andante lugubre - Allegro moderato - Allegro maestoso - Allegro vivo 12:43

The Tempest in F Minor, Op. 18
5 Symphonic Fantasia after William Shakespeare, Op. 18 24:03

PERSONNEL
The Orchestra of St Luke's
Pablo Heras-Casado, conductor

foobar2000 1.3.7 / Dynamic Range Meter 1.1.1
log date: 2017-09-19 18:54:09

––––––––––––––––––––––––––––––––––––––––
Analyzed: Orchestra of St. Luke's, Pablo Heras-Casado / Tchaikovsky: Symphony No. 1, Op. 13 & The Tempest, Op. 18
––––––––––––––––––––––––––––––––––––––––

DR Peak RMS Duration Track
––––––––––––––––––––––––––––––––––––––––
DR13 -2.63 dB -22.35 dB 11:25 01-Symphony No. 1 in G Minor, Op. 13 "Winter Daydreams": I. Dreams of a Winter Journey. Allegro tranquillo
DR17 -3.79 dB -27.24 dB 8:04 03-Symphony No. 1 in G Minor, Op. 13 "Winter Daydreams": III. Scherzo. Allegro scherzando giocoso
DR13 -1.01 dB -19.16 dB 12:43 04-Symphony No. 1 in G Minor, Op. 13 "Winter Daydreams": IV. Finale. Andante lugubre-Allegro moderato-Allegro maestoso-Allegro vivo
DR16 -0.51 dB -22.93 dB 24:03 05-The Tempest in F Minor, Symphonic Fantasia after William Shakespeare, Op. 18
––––––––––––––––––––––––––––––––––––––––

Number of tracks: 4
Official DR value: DR15

Samplerate: 96000 Hz
Channels: 2
Bits per sample: 24
Bitrate: 2550 kbps
Codec: FLAC
================================================================================

foobar2000 1.3.7 / Dynamic Range Meter 1.1.1
log date: 2017-09-19 18:53:41

––––––––––––––––––––––––––––––––––––––––
Statistics for: 02-Symphony No. 1 in G Minor, Op. 13 "Winter Daydreams": II. Land of Desolation, Land, of Mists. Adagio cantabile ma non tanto
Number of samples: 69651200
Duration: 12:06
––––––––––––––––––––––––––––––––––––––––

Left Right

Peak Value: -8.18 dB –- -8.32 dB
Avg RMS: -29.82 dB –- -29.86 dB
DR channel: 15.04 dB –- 14.86 dB
––––––––––––––––––––––––––––––––––––––––

Official DR Value: DR15

Samplerate: 96000 Hz
Channels: 2
Bits per sample: 24
Bitrate: 2285 kbps
Codec: FLAC
================================================================================


Thanks to the Original customer.