Thomas Rhett - Center Point Road (2019) [Official Digital Download]

Posted By: Pisulik
Thomas Rhett - Center Point Road (2019) [Official Digital Download]

Thomas Rhett - Center Point Road (2019)
FLAC (tracks) 24-bit/48 kHz | Time - 52:43 minutes | 687 MB
Studio Master, Official Digital Download | Artwork: Front cover

As he’s ascended to country music’s A-list” (Billboard), multi-platinum selling performer and current ACM Awards "Male Artist of the Year" Thomas Rhett ups the ante with his fourth studio album Center Point Road. With early praise from critics for the 16-song project entirely co-written and co-produced by Thomas Rhett, Center Point Road “shows how much Rhett has comfortably grown into his role as a star with something to say.

Center Point Road connects fans to Thomas Rhett’s past, weaving together autobiographical stories with familiar sounds that have propelled his meteoric career. The follow up to his GRAMMY®-nominated, platinum-selling No. 1 album Life Changes, Center Point Road is a return to Thomas Rhett’s roots. All those moments and more are revealed through a series of deeply-personal twists and turns – but this project isn’t about pining for glory days. It’s about knowing where you came from and who you really are, regardless of how much has changed. It’s about pushing forward, chasing crazy dreams and raising a family, and staying true to yourself in the process.

Tracklist:

01. Up
02. Don’t Threaten Me With A Good Time [feat. Little Big Town]
03. Blessed
04. Look What God Gave Her
05. Center Point Road [feat. Kelsea Ballerini]
06. That Old Truck
07. VHS
08. Notice
09. Sand
10. Beer Can’t Fix [feat. Jon Pardi]
11. Things You Do For Love
12. Remember You Young
13. Don’t Stop Drivin’
14. Barefoot
15. Dream You Never Had
16. Almost

foobar2000 1.3.7 / Dynamic Range Meter 1.1.1
log date: 2020-01-10 07:58:13

––––––––––––––––––––––––––––––––––––––––
Analyzed: Thomas Rhett / Center Point Road
––––––––––––––––––––––––––––––––––––––––

DR Peak RMS Duration Track
––––––––––––––––––––––––––––––––––––––––
DR5 -0.29 dB -7.64 dB 3:27 01-Up
DR6 -0.26 dB -7.14 dB 3:36 02-Don’t Threaten Me With A Good Time
DR7 -0.30 dB -8.78 dB 3:34 03-Blessed
DR6 -0.21 dB -7.37 dB 2:49 04-Look What God Gave Her
DR3 -0.30 dB -6.88 dB 3:37 05-Center Point Road
DR6 -0.29 dB -7.27 dB 3:32 06-That Old Truck
DR5 -0.27 dB -6.56 dB 3:16 07-VHS
DR6 -0.28 dB -7.98 dB 3:43 08-Notice
DR6 -0.29 dB -7.89 dB 2:43 09-Sand
DR5 -0.29 dB -6.70 dB 3:30 10-Beer Can’t Fix
DR5 -0.28 dB -7.67 dB 3:27 11-Things You Do For Love
DR6 -0.29 dB -8.86 dB 3:00 12-Remember You Young
DR6 -0.29 dB -8.13 dB 3:03 13-Don’t Stop Drivin’
DR7 -0.29 dB -8.26 dB 3:01 14-Barefoot
DR6 -0.29 dB -8.67 dB 3:22 15-Dream You Never Had
DR7 -0.29 dB -9.04 dB 3:12 16-Almost
––––––––––––––––––––––––––––––––––––––––

Number of tracks: 16
Official DR value: DR6

Samplerate: 48000 Hz
Channels: 2
Bits per sample: 24
Bitrate: 1806 kbps
Codec: FLAC
================================================================================


All thanks go to the original releaser