Tom Waits - Small Change (Remastered) (1976/2018) [Official Digital Download 24/96]

Posted By: Pisulik
Tom Waits - Small Change (Remastered) (1976/2018) [Official Digital Download 24/96]

Tom Waits - Small Change (Remastered) (1976/2018)
FLAC (tracks) 24-bit/96 kHz | Time - 49:53 minutes | 880 MB
Studio Master, Official Digital Download | Artwork: Front cover

Backed by a jazz trio comprising of tenor sax player Lew Tabackin, bassist Jim Hughart, and drummer Shelly Manne, Waits finds the most sympathetic backing of his career to that point and creates his early masterpiece. Small Change is the home of Waits’ favorites like "The Piano Has Been Drinking (Not Me),” the moving soldier’s ballad “Tom Traubert’s Blues,” and the manic slide-show of “Step Right Up.”

After signing with Asylum in the early 1970s, Tom Waits recorded a series of acclaimed albums whose noir tales about the after-midnight underworld transformed the seedy into the sublime in songs laced with both dark humour and profound longing. Nearly 40 years and several musical evolutions later, Waits’ Asylum years still hold a special place in the hearts of many fans.

Released in 1976, Waits recorded Small Change at Wally Heider’s studio in Hollywood. The album opens with 'Tom Traubert’s Blues', one of the singer’s most enduring songs, and features memorable cuts such as 'I Wish I Was In New Orleans', 'Bad Liver And A Broken Heart' and 'The Piano Has Been Drinking (Not Me)'.

Tracklist:

01. Tom Traubert’s Blues (Four Sheets To The Wind In Copenhagen)
02. Step Right Up
03. Jitterbug Boy (Sharing A Curbstone With Chuck E. Weiss, Robert Marchese, Paul Body and The Mug and Artie)
04. I Wish I Was In New Orleans (In The Ninth Ward)
05. The Piano Has Been Drinking (Not Me) (An Evening With Pete King)
06. Invitation To The Blues
07. Pasties And A G-String (At The Two O’Clock Club)
08. Bad Liver And A Broken Heart (In Lowell)
09. The One That Got Away
10. Small Change (Got Rained On With His Own .38)
11. I Can’t Wait To Get Off Work (And See My Baby On Montgomery Avenue)

foobar2000 1.3.7 / Dynamic Range Meter 1.1.1
log date: 2018-03-08 15:45:01

––––––––––––––––––––––––––––––––––––––––
Analyzed: Tom Waits / Small Change (Remastered)
––––––––––––––––––––––––––––––––––––––––

DR Peak RMS Duration Track
––––––––––––––––––––––––––––––––––––––––
DR12 -0.63 dB -14.71 dB 6:39 01-Tom Traubert’s Blues (Four Sheets To The Wind In Copenhagen)
DR12 -0.10 dB -13.57 dB 5:43 02-Step Right Up
DR12 -2.59 dB -17.30 dB 3:44 03-Jitterbug Boy (Sharing A Curbstone With Chuck E Weiss, Robert Marchese, Paul Body and The Mug and Artie)
DR12 -0.78 dB -15.67 dB 4:53 04-I Wish I Was In New Orleans (In The Ninth Ward)
DR12 -2.44 dB -18.04 dB 3:40 05-The Piano Has Been Drinking (Not Me) (An Evening With Pete King)
DR11 -1.89 dB -15.61 dB 5:25 06-Invitation To The Blues
DR13 -0.08 dB -14.42 dB 2:32 07-Pasties And A G-String (At The Two O’Clock Club)
DR11 -1.71 dB -16.24 dB 4:50 08-Bad Liver And A Broken Heart (In Lowell)
DR13 -0.80 dB -16.17 dB 4:08 09-The One That Got Away
DR15 -3.78 dB -22.72 dB 5:07 10-Small Change (Got Rained On With His Own 38)
DR13 -2.44 dB -18.63 dB 3:18 11-I Can’t Wait To Get Off Work (And See My Baby On Montgomery Avenue)
––––––––––––––––––––––––––––––––––––––––

Number of tracks: 11
Official DR value: DR12

Samplerate: 96000 Hz
Channels: 2
Bits per sample: 24
Bitrate: 2422 kbps
Codec: FLAC
================================================================================


All thanks go to the original releaser