Tsuyoshi Yamamoto Trio – What A Wonderful World (2013) [SACD ISO+HiRes FLAC]

Posted By: tiburon
Tsuyoshi Yamamoto Trio – What A Wonderful World (2013) [SACD ISO+HiRes FLAC]

Tsuyoshi Yamamoto Trio – What A Wonderful World (2013) [SACD ISO+HiRes FLAC]
Pio BDP-80FD Rip | SACD ISO | DST64 2.0 >1-bit/2.8224 MHz | Front+Back | 2.09GB + 5% Recovery
FLAC tracks 2.0 24bit/88.2 kHz | Front+Back | 1.09GB + 5% Recovery

Since his stunning debut in 1974 with the now world-famous audiophile recordings for the Three Blind Mice label, Japanese pianist Tsuyoshi Yamamoto has built a career that now spans four decades. His brand-new trio album What A Wonderful World follows his previous release Gentle Blues (VHCD-1118), his first recording for Venus Records in 14 years. In fact, the 12 tracks in this CD were recorded on the day after 10 tracks on Gentle Blues were recorded. It is remarkable that Yamamoto and his trio recorded enough materials for two CDs in two consecutive days, but then again, he is a veteran pianist who doesn't like to repeat himself and prefers to record everything in a single take.
Track List
01. Tea For Two 4:26
02. Cleopatra's Dream 2:56
03. Blues Of You 5:30
04. What A Wonderful World 5:48
05. Poinciana 8:45
06. Nanatsu No Ko 3:44
07. Caravan 6:23
08. Home On The Range 4:00
09. Like It Is 2:57
10. Speak Low 5:12
11. Tsuki No Sabaku 4:04
12. Little Blues 1:28

Recorded at Sony Music Studios, Tokyo on January 24, 2013

musicians
Tsuyoshi Yamamoto - piano, Rhodes
Hiroshi Kagawa - bass
Toshio Osumi - drums

Produced by Tetsuo Osumi


––––––––––––––––––––––––––––––––––––––––
Analyzed: Tsuyoshi Yamamoto Trio / WHAT A WONDERFUL WORLD
––––––––––––––––––––––––––––––––––––––––

DR Peak RMS Duration Track
––––––––––––––––––––––––––––––––––––––––
DR8 -4.42 dB -14.61 dB 4:30 01-Tea For Two
DR8 -4.51 dB -13.67 dB 3:00 02-Cleopatra's Dream
DR8 -4.12 dB -14.79 dB 5:33 03-Blues Of You
DR7 -4.82 dB -14.33 dB 5:52 04-What A Wonderful World
DR8 -4.30 dB -14.12 dB 8:48 05-Poinciana
DR10 -7.06 dB -20.48 dB 3:48 06-Nanatsu No Ko
DR7 -4.71 dB -13.95 dB 6:30 07-Caravan
DR8 -4.32 dB -15.23 dB 4:04 08-Home On The Range
DR7 -5.03 dB -14.10 dB 3:03 09-Like It Is
DR8 -4.49 dB -13.53 dB 5:16 10-Speak Low
DR7 -4.75 dB -14.02 dB 1:29 11-Little Blues
––––––––––––––––––––––––––––––––––––––––

Number of tracks: 11
Official DR value: DR8

Samplerate: 2822400 Hz / PCM Samplerate: 88200 Hz
Channels: 2
Bits per sample: 1
Bitrate: 5645 kbps
Codec: DSD64
================================================================================


––––––––––––––––––––––––––––––––––––––––
Analyzed: Tsuyoshi Yamamoto Trio / WHAT A WONDERFUL WORLD
––––––––––––––––––––––––––––––––––––––––

DR Peak RMS Duration Track
––––––––––––––––––––––––––––––––––––––––
DR8 -0.42 dB -10.61 dB 4:30 01-Tea For Two
DR8 -0.51 dB -9.67 dB 3:00 02-Cleopatra's Dream
DR8 -0.12 dB -10.79 dB 5:33 03-Blues Of You
DR7 -0.82 dB -10.33 dB 5:52 04-What A Wonderful World
DR8 -0.30 dB -10.12 dB 8:48 05-Poinciana
DR10 -3.06 dB -16.48 dB 3:48 06-Nanatsu No Ko
DR7 -0.71 dB -9.95 dB 6:30 07-Caravan
DR8 -0.32 dB -11.23 dB 4:04 08-Home On The Range
DR7 -1.03 dB -10.10 dB 3:03 09-Like It Is
DR8 -0.49 dB -9.53 dB 5:16 10-Speak Low
DR7 -0.75 dB -10.02 dB 1:29 11-Little Blues
––––––––––––––––––––––––––––––––––––––––

Number of tracks: 11
Official DR value: DR8

Samplerate: 88200 Hz
Channels: 2
Bits per sample: 24
Bitrate: 2776 kbps
Codec: FLAC
================================================================================


Gain for FLAC tracks = 4.0dB

Thanks to the original ripper