Quatuor Ellipsos, Nantes Philharmonie & Frédéric Oster - United Colors (2018) [Official Digital Download]

Posted By: SERTiL
Quatuor Ellipsos, Nantes Philharmonie & Frédéric Oster - United Colors (2018) [Official Digital Download]

Quatuor Ellipsos, Nantes Philharmonie & Frédéric Oster - United Colors (2018)
FLAC (tracks) 24-bit/48 kHz | Time - 56:09 minutes | 549 MB
Studio Master, Official Digital Download | Artwork: Digital Booklet

To celebrate its fifteen-year career, the Quatuor Ellipsos wanted to pay tribute to the wind orchestras which unite so many amateur musicians all over the world. With blazing brass, jazz swing, African rhythms and sounds from Asia, along with a touch of tango and Irish fiddle, “United Colors” is a melting pot of sax culture. Their fifth album, crafted with playfulness and collaboration, combines new creations for saxophone quartet with pieces for wind orchestra, alongside the Philharmonie de Nantes.

Tracklist:
01. Sir Patrick
02. High Life
03. Spotlights
04. Pulse
05. The Pale Dancer: I.Andante
06. The Pale Dancer: II. Vivo
07. United Colors of Saxophones: I. Con moto
08. United Colors of Saxophones: II. Tranquillo
09. United Colors of Saxophones: III. Vivace

Personnel:
Quatuor Ellipsos:
Paul-Fathi Lacombe, soprano saxophone
Julien Bréchet, alto saxophone
Sylvain Jarry, tenor saxophone
Nicolas Herrouet, baritone saxophone
Nantes Philharmonie
Frederic Oster, direction

foobar2000 1.3.7 / Dynamic Range Meter 1.1.1
log date: 2018-02-25 19:17:05

––––––––––––––––––––––––––––––––––––––––
Analyzed: Quatuor Ellipsos, Nantes Philharmonie, Frédéric Oster / United Colors
––––––––––––––––––––––––––––––––––––––––

DR Peak RMS Duration Track
––––––––––––––––––––––––––––––––––––––––
DR10 -0.20 dB -13.98 dB 4:01 01-Sir Patrick
DR14 -3.31 dB -22.59 dB 5:26 02-High Life
DR11 -0.20 dB -16.15 dB 10:30 03-Spotlights
DR15 0.00 dB -21.08 dB 5:09 04-Pulse
DR13 -2.07 dB -21.87 dB 5:31 05-The Pale Dancer: I.Andante
DR13 -2.84 dB -21.45 dB 5:19 06-The Pale Dancer: II. Vivo
DR8 -0.20 dB -13.58 dB 7:35 07-United Colors of Saxophones: I. Con moto
DR14 -0.20 dB -20.31 dB 6:54 08-United Colors of Saxophones: II. Tranquillo
DR12 -0.20 dB -16.09 dB 5:47 09-United Colors of Saxophones: III. Vivace
––––––––––––––––––––––––––––––––––––––––

Number of tracks: 9
Official DR value: DR12

Samplerate: 48000 Hz
Channels: 2
Bits per sample: 24
Bitrate: 1464 kbps
Codec: FLAC
================================================================================


Thanks to the Original customer.