VA - TELARC DTS 5.1 Surround Sampler (1998) [DTS 5.1 Digital Surround]

Posted By: popsakov
VA - TELARC DTS 5.1 Surround Sampler (1998) [DTS 5.1 Digital Surround]

VA - TELARC DTS 5.1 Surround Sampler (1998) [DTS 5.1 Digital Surround]
DTS CD | EAC Rip | WAV, Tracks, Log+Checker, No Cue | ~ 759 Mb
Covers Included | FileSonic, Uploaded | 3% Recovery
Genre: Jazz, Blues, Classical, Sound Effects | Label: TELARC | Catalog#: CD-84402-DTS | USA

Demo disc from TELARC. Includes a sound effects and music of various genres in DTS 5.1.

Track List:

01. Surround Madness v5.1.03 [05:44]
02. Claudio Monteverdi - Vespers of 1610: Deus in adjutorium / Domine ad adjuvandum [02:17]
03. James Horner: End Credits from Braveheart [04:53]
04. Think About You [05:31]
05. Sahra [04:16]
06. Gustav Mahler: Lustig im Tempound Keck im Ausdruck from Symphony No. 3 [04:15]
07. Gustav Holst: Jupiter The Bringer of Jollity The Planets [07:56]
08. Perfect Blues [04:38]
09. Ralph Vaughan Williams: Beat! Beat! Drums! from Dona nobis pacem [03:55]
10. Thomas Canning: Fantasy on a Hymn by Justin Morgan [09:03]
11. Summertime [07:21]
12. Broke and Hungry - Broke and Hungry [05:30]

Sound Effects

13. The Apollo 13 Mission [01:38]
14. Home Run [00:58]
15. Warp Eight [01:19]
16. F-16 Fighter Squadron - Into the Battle [01:09]
17. Jurassic Lunch [01:19]

Exact Audio Copy V0.99 prebeta 3 from 28. July 2007

EAC extraction logfile from 7. April 2009, 11:08

Various Artists / Telarc DTS 5.1 Surround Sampler (DTS CD)

Used drive : TSSTcorpCDDVDW SE-S204N Adapter: 6 ID: 4

Read mode : Secure
Utilize accurate stream : Yes
Defeat audio cache : Yes
Make use of C2 pointers : No

Read offset correction : 6
Overread into Lead-In and Lead-Out : No
Fill up missing offset samples with silence : Yes
Delete leading and trailing silent blocks : No
Null samples used in CRC calculations : Yes
Used interface : Installed external ASPI interface
Gap handling : Not detected, thus appended to previous track

Used output format : Internal WAV Routines
Sample format : 44.100 Hz; 16 Bit; Stereo


TOC of the extracted CD

Track | Start | Length | Start sector | End sector
––––––––––––––––––––––––––––-
1 | 0:00.00 | 5:44.55 | 0 | 25854
2 | 5:44.55 | 2:17.57 | 25855 | 36186
3 | 8:02.37 | 4:53.48 | 36187 | 58209
4 | 12:56.10 | 5:31.37 | 58210 | 83071
5 | 18:27.47 | 4:16.13 | 83072 | 102284
6 | 22:43.60 | 4:15.45 | 102285 | 121454
7 | 26:59.30 | 7:56.04 | 121455 | 157158
8 | 34:55.34 | 4:38.06 | 157159 | 178014
9 | 39:33.40 | 3:55.52 | 178015 | 195691
10 | 43:29.17 | 9:03.43 | 195692 | 236459
11 | 52:32.60 | 7:21.12 | 236460 | 269546
12 | 59:53.72 | 5:30.20 | 269547 | 294316
13 | 65:24.17 | 1:38.73 | 294317 | 301739
14 | 67:03.15 | 0:58.15 | 301740 | 306104
15 | 68:01.30 | 1:19.70 | 306105 | 312099
16 | 69:21.25 | 1:09.57 | 312100 | 317331
17 | 70:31.07 | 1:19.20 | 317332 | 323276


Track 1

Filename C:\TTT\Telarc DTS 5.1 Surround Sampler\01 Surround Madness v5.1.03.wav

Peak level 25.0 %
Track quality 100.0 %
Test CRC 76A73119
Copy CRC 76A73119
Cannot be verified as accurate (confidence 4) [4A01F086], AccurateRip returned [095101F5]
Copy OK

Track 2

Filename C:\TTT\Telarc DTS 5.1 Surround Sampler\02 Domine ad adjuvandum.wav

Peak level 25.0 %
Track quality 100.0 %
Test CRC 8638B156
Copy CRC 8638B156
Cannot be verified as accurate (confidence 4) [96CBC682], AccurateRip returned [E51C9C77]
Copy OK

Track 3

Filename C:\TTT\Telarc DTS 5.1 Surround Sampler\03 James Horner- End Credits from Braveheart.wav

Peak level 25.0 %
Track quality 100.0 %
Test CRC BB579D65
Copy CRC BB579D65
Cannot be verified as accurate (confidence 4) [300DA50A], AccurateRip returned [D697C3EF]
Copy OK

Track 4

Filename C:\TTT\Telarc DTS 5.1 Surround Sampler\04 Think About You.wav

Peak level 25.0 %
Track quality 100.0 %
Test CRC 7940A5C5
Copy CRC 7940A5C5
Cannot be verified as accurate (confidence 4) [761FE01D], AccurateRip returned [2D50DE91]
Copy OK

Track 5

Filename C:\TTT\Telarc DTS 5.1 Surround Sampler\05 Sahra.wav

Peak level 25.0 %
Track quality 100.0 %
Test CRC CEAEF92B
Copy CRC CEAEF92B
Cannot be verified as accurate (confidence 4) [D076E04F], AccurateRip returned [58AA5B7F]
Copy OK

Track 6

Filename C:\TTT\Telarc DTS 5.1 Surround Sampler\06 Gustav Mahler- Lustig im Tempound Keck im Ausdruck from Symphony No. 3.wav

Peak level 25.0 %
Track quality 100.0 %
Test CRC D14AFF48
Copy CRC D14AFF48
Cannot be verified as accurate (confidence 4) [FEDF0DAD], AccurateRip returned [B39FA02B]
Copy OK

Track 7

Filename C:\TTT\Telarc DTS 5.1 Surround Sampler\07 Gustav Holst- Jupiter The Bringer of Jollity The Planets.wav

Peak level 25.0 %
Track quality 100.0 %
Test CRC 0CAC4D9C
Copy CRC 0CAC4D9C
Cannot be verified as accurate (confidence 4) [9AC5E3D5], AccurateRip returned [90DEC4D6]
Copy OK

Track 8

Filename C:\TTT\Telarc DTS 5.1 Surround Sampler\08 Perfect Blues.wav

Peak level 25.0 %
Track quality 100.0 %
Test CRC C90C50B1
Copy CRC C90C50B1
Cannot be verified as accurate (confidence 4) [2943C8E2], AccurateRip returned [21D118F3]
Copy OK

Track 9

Filename C:\TTT\Telarc DTS 5.1 Surround Sampler\09 Ralph Vaughan Williams- Beat! Beat! Drums! from Dona nobis pacem.wav

Peak level 25.0 %
Track quality 100.0 %
Test CRC 3E5D8607
Copy CRC 3E5D8607
Cannot be verified as accurate (confidence 4) [CAD3C9D0], AccurateRip returned [A5D5F90F]
Copy OK

Track 10

Filename C:\TTT\Telarc DTS 5.1 Surround Sampler\10 Thomas Canning- Fantasy on a Hymn by JustinMorgan.wav

Peak level 25.0 %
Track quality 99.9 %
Test CRC 19E323E7
Copy CRC 19E323E7
Cannot be verified as accurate (confidence 4) [E319E9AF], AccurateRip returned [4B3BA79C]
Copy OK

Track 11

Filename C:\TTT\Telarc DTS 5.1 Surround Sampler\11 Summertime.wav

Peak level 25.0 %
Track quality 100.0 %
Test CRC 2962A7E5
Copy CRC 2962A7E5
Cannot be verified as accurate (confidence 4) [4DDBFA7B], AccurateRip returned [EAA2BC62]
Copy OK

Track 12

Filename C:\TTT\Telarc DTS 5.1 Surround Sampler\12 Broke and Hungry.wav

Peak level 25.0 %
Track quality 100.0 %
Test CRC D4D1269D
Copy CRC D4D1269D
Cannot be verified as accurate (confidence 4) [61E09941], AccurateRip returned [46B0D3FA]
Copy OK

Track 13

Filename C:\TTT\Telarc DTS 5.1 Surround Sampler\13 The Apollo 13 Mission.wav

Peak level 25.0 %
Track quality 100.0 %
Test CRC 1ED292BD
Copy CRC 1ED292BD
Cannot be verified as accurate (confidence 4) [8C9A6C94], AccurateRip returned [2C7D8D76]
Copy OK

Track 14

Filename C:\TTT\Telarc DTS 5.1 Surround Sampler\14 Home Run.wav

Peak level 25.0 %
Track quality 100.0 %
Test CRC 6A7FF2BA
Copy CRC 6A7FF2BA
Cannot be verified as accurate (confidence 4) [4037A895], AccurateRip returned [69E98B06]
Copy OK

Track 15

Filename C:\TTT\Telarc DTS 5.1 Surround Sampler\15 Warp Eight.wav

Peak level 25.0 %
Track quality 100.0 %
Test CRC 566920F3
Copy CRC 566920F3
Cannot be verified as accurate (confidence 4) [B4E11CC9], AccurateRip returned [08375591]
Copy OK

Track 16

Filename C:\TTT\Telarc DTS 5.1 Surround Sampler\16 F-16 Fighter Squadron - Into the Battle.wav

Peak level 25.0 %
Track quality 100.0 %
Test CRC 2F3BF2EE
Copy CRC 2F3BF2EE
Cannot be verified as accurate (confidence 4) [303B147C], AccurateRip returned [D8A97687]
Copy OK

Track 17

Filename C:\TTT\Telarc DTS 5.1 Surround Sampler\17 Jurassic Lunch.wav

Peak level 25.0 %
Track quality 100.0 %
Test CRC 69598B6D
Copy CRC 69598B6D
Cannot be verified as accurate (confidence 4) [23DBDCDA], AccurateRip returned [C3534973]
Copy OK


No tracks could be verified as accurate
You may have a different pressing from the one(s) in the database

No errors occurred

End of status report

AUDIOCHECKER v2.0 beta (build 457) - by Dester - opdester@freemail.hu
~~~~~~~~~~~~~~~~~~~~~~~~~~~~~~~~~~
-=== DO NOT EDIT THIS FILE! ===-

Path: …\Telarc DTS 5.1 Surround Sampler

01 -=- 01 Surround Madness v5.1.03.wav -=- CDDA (100%)
02 -=- 02 Domine ad adjuvandum.wav -=- CDDA (100%)
03 -=- 03 James Horner- End Credits from Braveheart.wav -=- CDDA (100%)
04 -=- 04 Think About You.wav -=- CDDA (100%)
05 -=- 05 Sahra.wav -=- CDDA (100%)
06 -=- 06 Gustav Mahler- Lustig im Tempound Keck im Ausdruck from Symphony No. 3.wav -=- CDDA (100%)
07 -=- 07 Gustav Holst- Jupiter The Bringer of Jollity The Planets.wav -=- CDDA (100%)
08 -=- 08 Perfect Blues.wav -=- CDDA (100%)
09 -=- 09 Ralph Vaughan Williams- Beat! Beat! Drums! from Dona nobis pacem.wav -=- CDDA (100%)
10 -=- 10 Thomas Canning- Fantasy on a Hymn by JustinMorgan.wav -=- CDDA (100%)
11 -=- 11 Summertime.wav -=- CDDA (100%)
12 -=- 12 Broke and Hungry.wav -=- CDDA (100%)
13 -=- 13 The Apollo 13 Mission.wav -=- CDDA (100%)
14 -=- 14 Home Run.wav -=- CDDA (100%)
15 -=- 15 Warp Eight.wav -=- CDDA (100%)
16 -=- 16 F-16 Fighter Squadron - Into the Battle.wav -=- CDDA (100%)
17 -=- 17 Jurassic Lunch.wav -=- CDDA (100%)

Summary 100,00% CDDA

16401364

[Verification date: 03.12.2010 1:28:17]
[Disc ID: 0032a418-027d6a24-f110d611]
Track [ CRC ] Status
01 [4a01f086] (02/10) Accurately ripped as in pressing(s) #2
02 [96cbc682] (02/09) Accurately ripped as in pressing(s) #2
03 [300da50a] (02/08) Accurately ripped as in pressing(s) #2
04 [761fe01d] (02/08) Accurately ripped as in pressing(s) #2
05 [d076e04f] (02/08) Accurately ripped as in pressing(s) #2
06 [fedf0dad] (02/09) Accurately ripped as in pressing(s) #2
07 [9ac5e3d5] (02/08) Accurately ripped as in pressing(s) #2
08 [2943c8e2] (02/08) Accurately ripped as in pressing(s) #2
09 [cad3c9d0] (02/08) Accurately ripped as in pressing(s) #2
10 [e319e9af] (02/08) Accurately ripped as in pressing(s) #2
11 [4ddbfa7b] (02/08) Accurately ripped as in pressing(s) #2
12 [61e09941] (02/09) Accurately ripped as in pressing(s) #2
13 [8c9a6c94] (02/09) Accurately ripped as in pressing(s) #2
14 [4037a895] (02/09) Accurately ripped as in pressing(s) #2
15 [b4e11cc9] (02/09) Accurately ripped as in pressing(s) #2
16 [303b147c] (02/09) Accurately ripped as in pressing(s) #2
17 [23dbdcda] (02/09) Accurately ripped as in pressing(s) #2
Offsetted by 664:
01 [095101f5] (08/10) Accurately ripped as in pressing(s) #1
02 [e51c9c77] (07/09) Accurately ripped as in pressing(s) #1
03 [d697c3ef] (06/08) Accurately ripped as in pressing(s) #1
04 [2d50de91] (06/08) Accurately ripped as in pressing(s) #1
05 [58aa5b7f] (06/08) Accurately ripped as in pressing(s) #1
06 [b39fa02b] (07/09) Accurately ripped as in pressing(s) #1
07 [90dec4d6] (06/08) Accurately ripped as in pressing(s) #1
08 [21d118f3] (06/08) Accurately ripped as in pressing(s) #1
09 [a5d5f90f] (06/08) Accurately ripped as in pressing(s) #1
10 [4b3ba79c] (06/08) Accurately ripped as in pressing(s) #1
11 [eaa2bc62] (06/08) Accurately ripped as in pressing(s) #1
12 [46b0d3fa] (07/09) Accurately ripped as in pressing(s) #1
13 [2c7d8d76] (07/09) Accurately ripped as in pressing(s) #1
14 [69e98b06] (07/09) Accurately ripped as in pressing(s) #1
15 [08375591] (07/09) Accurately ripped as in pressing(s) #1
16 [d8a97687] (07/09) Accurately ripped as in pressing(s) #1
17 [c3534973] (07/09) Accurately ripped as in pressing(s) #1

Track [ CRC32 ] [W/O NULL] [ LOG ]
– [48C13E32] [12FB20E7]
01 [76A73119] [75A9DBD5] CRC32
02 [8638B156] [321632A4] CRC32
03 [BB579D65] [6FFF1B24] CRC32
04 [7940A5C5] [C4E2969D] CRC32
05 [CEAEF92B] [8951C66F] CRC32
06 [D14AFF48] [948EAD3F] CRC32
07 [0CAC4D9C] [6EB60179] CRC32
08 [C90C50B1] [D61983F7] CRC32
09 [3E5D8607] [8F44B4C0] CRC32
10 [19E323E7] [3AA8899C] CRC32
11 [2962A7E5] [F24E4EE1] CRC32
12 [D4D1269D] [75AA6AF5] CRC32
13 [1ED292BD] [93EE9C2A] CRC32
14 [6A7FF2BA] [C65EF580] CRC32
15 [566920F3] [9C40657C] CRC32
16 [2F3BF2EE] [E7EB3E71] CRC32
17 [69598B6D] [3A287535] CRC32

VA - TELARC DTS 5.1 Surround Sampler (1998) [DTS 5.1 Digital Surround]

VA - TELARC DTS 5.1 Surround Sampler (1998) [DTS 5.1 Digital Surround]


FileSonic:

part 1 | part 2 | part 3 | part 4 | part 5 | part 6 | part 7 | part 8

Uploaded:

part 1 | part 2 | part 3 | part 4 | part 5 | part 6 | part 7 | part 8

pass: shsv

In case you encounter dead links, please send me a private message!

Visit my blog!

All thanks go to "zzazas2000"