Riccardo Muti, Chicago Symphony Orchestra & Chorus - Verdi: Messa da Requiem (2011) [Official Digital Download 24/88]

Posted By: SERTiL
Riccardo Muti, Chicago Symphony Orchestra & Chorus - Verdi: Messa da Requiem (2011) [Official Digital Download 24/88]

Riccardo Muti, Chicago Symphony Orchestra & Chorus - Verdi: Messa da Requiem (2011)
FLAC (tracks) 24-bit/88.2 kHz | Time - 89:31 minutes | 1.56 GB
Studio Master, Official Digital Download | Artwork: Digital booklet

The Chicago Symphony Orchestra inaugurates Riccardo Muti's tenure as music director with one of the most anticipated releases of the year Verdi's Requiem Mass, featuring the Chicago Symphony Chorus and four outstanding soloists. Recorded live from sold-out, electrifying concerts, this stunning performance brilliantly captures both the pathos and passion of Verdi's masterpiece.

2011 GRAMMY Award winner: Best Classical Album & Best Choral Performance –National Academy of Recording Arts & Sciences, February 2011

TRACKLIST

Giuseppe Fortunino Francesco Verdi (1813 – 1901)

CD1

Requiem Mass, for soloists, chorus & orchestra (Manzoni Requiem)
1.Requiem and Kyrie
2.Dies irae. Dies irae.
3.Dies irae. Tuba mirum
4.Dies irae. Mors stupebit
5.Dies irae. Liber scriptus
6.Dies irae. Quid sum miser
7.Dies irae. Rex tremendae
8.Dies irae. Recordare
9.Dies irae. Ingemisco
10.Dies irae. Confutatis
11.Dies irae. Lacrimosa

CD2

1.Offertorio
2.Sanctus
3.Agnus dei
4.Lux aeterna
5.Libera me

PERSONNEL
Chicago Symphony Orchestra
Riccardo Muti - conductor
Barbara Frittoli - soprano
Olga Borodina - mezzo-soprano
Mario Zeffiri - tenor
Ildar Abdrazakov - bass
Chicago Symphony Chorus
Duain Wolfe - chorus director

foobar2000 1.3.7 / Dynamic Range Meter 1.1.1
log date: 2017-05-29 15:56:17

––––––––––––––––––––––––––––––––––––––––
Analyzed: Olga Borodina / Barbara Frittoli / Mario Zeffiri / Ildar Abdrazakov / Riccardo Muti / Chicago Symphony Chorus / Chicago Symphony Orchestra / Verdi: Messa da Requiem
––––––––––––––––––––––––––––––––––––––––

DR Peak RMS Duration Track
––––––––––––––––––––––––––––––––––––––––
DR15 -1.05 dB -24.94 dB 9:52 01-Verdi, Charles: Messa da Requiem: Requiem: Requiem aeternam
DR11 -0.75 dB -15.33 dB 2:26 02-Verdi, Charles: Messa da Requiem: Dies irae: Dies irae, dies illa
DR10 -0.75 dB -15.26 dB 1:58 03-Verdi, Charles: Messa da Requiem: Dies irae: Tuba mirum
DR11 -11.63 dB -33.58 dB 1:25 04-Verdi, Charles: Messa da Requiem: Dies irae: Mors stupebit
DR16 -0.75 dB -24.83 dB 5:07 05-Verdi, Charles: Messa da Requiem: Dies irae: Liber scriptus
DR12 -13.56 dB -32.08 dB 3:55 06-Verdi, Charles: Messa da Requiem: Dies irae: Quid sum miser
DR12 -0.78 dB -19.24 dB 3:52 07-Verdi, Charles: Messa da Requiem: Dies irae: Rex tremendae
DR13 -10.98 dB -29.92 dB 4:20 08-Verdi, Charles: Messa da Requiem: Dies irae: Recordare
DR13 -12.60 dB -30.73 dB 3:38 09-Verdi, Charles: Messa da Requiem: Dies irae: Ingemisco
DR14 -0.75 dB -20.95 dB 5:27 10-Verdi, Charles: Messa da Requiem: Dies irae: Confutatis
DR15 -3.58 dB -25.07 dB 6:27 11-Verdi, Charles: Messa da Requiem: Dies irae: Lacrymosa
DR16 -4.59 dB -27.50 dB 10:48 12-Verdi, Charles: Messa da Requiem: Offertorio
DR12 -0.76 dB -17.58 dB 2:37 13-Verdi, Charles: Messa da Requiem: Sanctus
DR14 -8.19 dB -29.40 dB 5:41 14-Verdi, Charles: Messa da Requiem: Agnus Dei
DR14 -9.67 dB -30.38 dB 7:01 15-Verdi, Charles: Messa da Requiem: Lux aeterna
DR13 -0.76 dB -20.09 dB 15:04 16-Verdi, Charles: Messa da Requiem: Libera me
––––––––––––––––––––––––––––––––––––––––

Number of tracks: 16
Official DR value: DR13

Samplerate: 88200 Hz
Channels: 2
Bits per sample: 24
Bitrate: 2482 kbps
Codec: FLAC
================================================================================


Riccardo Muti, Chicago Symphony Orchestra & Chorus - Verdi: Messa da Requiem (2011) [Official Digital Download 24/88]


Thanks to the Original customer.