James Ehnes, Andrew Armstrong & Sydney Symphony - Vivaldi: The Four Seasons (2015) [Official Digital Download 24/96]

Posted By: SERTiL
James Ehnes, Andrew Armstrong & Sydney Symphony - Vivaldi: The Four Seasons (2015) [Official Digital Download 24/96]

James Ehnes, Andrew Armstrong & Sydney Symphony - Vivaldi: The Four Seasons (2015)
FLAC (tracks) 24-bit/96 kHz | Time - 71:01 minutes | 1.38 GB
Studio Master, Official Digital Download | Artwork: Digital Booklet

James Ehnes takes a break from the 19th and 20th century repertoire and has recorded for the first time in his career four of the most famous baroque violin concertos – Vivaldi’s Four Seasons, the first four works in his set of 12, op8. James also directs the Sydney Symphony.

The Vivaldi is prefaced by two famous violin sonatas – Tartini’s Devils Trill in the skillful arrangement by Fritz Kreisler which is very faithful to the original text, to which Kreisler adds the famous cadenza in the finale.

Leclair, one the few composers to have been murdered, was known as ‘The French Corelli’. Of his op9 set of 12 sonatas for violin, the third has become the most popular for its ‘Tambourin’ finale, depicting a pipe-and–drum dance with drone effects - all good fun!

Tracklist:
01. Violin Sonata in G Minor, B.g5 "Il trillo del diavolo": I. Larghetto
02. Violin Sonata in G Minor, B.g5 "Il trillo del diavolo": II. Allegro energico
03. Violin Sonata in G Minor, B.g5 "Il trillo del diavolo": III. Grave – Allegro assai
04. Violin Sonata in D, Op. 9/3 "Tambourin": I. Un poco andante
05. Violin Sonata in D, Op. 9/3 "Tambourin": II. Allegro
06. Violin Sonata in D, Op. 9/3 "Tambourin": III. Sarabanda. Largo
07. Violin Sonata in D, Op. 9/3 "Tambourin": IV. Presto
08. Le Quattro Stagione, Concerto in E "La Primavera": I. Allegro
09. Le Quattro Stagione, Concerto in E "La Primavera": II. Largo e pianissimo sempre
10. Le Quattro Stagione, Concerto in E "La Primavera": III. Danza pastoral. Allegro
11. Le Quattro Stagione, Concerto in G Minor "L’Estate": I. Allegro non molto
12. Le Quattro Stagione, Concerto in G Minor "L’Estate": II. Adagio – Presto
13. Le Quattro Stagione, Concerto in G Minor "L’Estate": III. Presto
14. Le Quattro Stagione, Concerto in F "L’Autunno": I. Allegro
15. Le Quattro Stagione, Concerto in F "L’Autunno": II. Adagio molto
16. Le Quattro Stagione, Concerto in F "L’Autunno": III. Allegro
17. Le Quattro Stagione, Concerto in F Minor "L’Inverno": I. Allegro con molto
18. Le Quattro Stagione, Concerto in F Minor "L’Inverno": II. Largo
19. Le Quattro Stagione, Concerto in F Minor "L’Inverno": III. Allegro

Composers:
Leclair, Jean-Marie (1697-1764)
Tartini, Giuseppe (1692-1770)
Vivaldi, Antonio (1678-1741)

Personnel:
James Ehnes, violin conductor
Andrew Armstrong, piano
Sydney Symphony

foobar2000 1.3.7 / Dynamic Range Meter 1.1.1
log date: 2018-03-31 18:37:41

––––––––––––––––––––––––––––––––––––––––
Analyzed: James Ehnes, Andrew Armstrong, Sydney Symphony / Vivaldi: The Four Seasons
––––––––––––––––––––––––––––––––––––––––

DR Peak RMS Duration Track
––––––––––––––––––––––––––––––––––––––––
DR13 -7.55 dB -24.40 dB 3:50 01-Violin Sonata in G Minor, B.g5 "Il trillo del diavolo": I. Larghetto
DR13 -4.05 dB -21.69 dB 4:22 02-Violin Sonata in G Minor, B.g5 "Il trillo del diavolo": II. Allegro energico
DR16 -0.73 dB -22.42 dB 8:31 03-Violin Sonata in G Minor, B.g5 "Il trillo del diavolo": III. Grave – Allegro assai
DR13 -8.32 dB -25.49 dB 4:14 04-Violin Sonata in D, Op. 9/3 "Tambourin": I. Un poco andante
DR13 -5.08 dB -21.26 dB 2:09 05-Violin Sonata in D, Op. 9/3 "Tambourin": II. Allegro
DR13 -11.93 dB -30.61 dB 2:58 06-Violin Sonata in D, Op. 9/3 "Tambourin": III. Sarabanda. Largo
DR15 -4.78 dB -23.77 dB 4:09 07-Violin Sonata in D, Op. 9/3 "Tambourin": IV. Presto
DR13 -1.98 dB -19.59 dB 3:24 08-Le Quattro Stagione, Concerto in E "La Primavera": I. Allegro
DR13 -11.34 dB -29.61 dB 2:35 09-Le Quattro Stagione, Concerto in E "La Primavera": II. Largo e pianissimo sempre
DR14 -2.81 dB -21.32 dB 4:23 10-Le Quattro Stagione, Concerto in E "La Primavera": III. Danza pastoral. Allegro
DR14 -0.46 dB -21.49 dB 5:53 11-Le Quattro Stagione, Concerto in G Minor "L’Estate": I. Allegro non molto
DR14 -3.90 dB -26.15 dB 2:28 12-Le Quattro Stagione, Concerto in G Minor "L’Estate": II. Adagio – Presto
DR13 -3.69 dB -19.62 dB 2:44 13-Le Quattro Stagione, Concerto in G Minor "L’Estate": III. Presto
DR15 -2.75 dB -22.27 dB 5:05 14-Le Quattro Stagione, Concerto in F "L’Autunno": I. Allegro
DR10 -16.63 dB -31.65 dB 2:15 15-Le Quattro Stagione, Concerto in F "L’Autunno": II. Adagio molto
DR15 -0.67 dB -19.92 dB 3:36 16-Le Quattro Stagione, Concerto in F "L’Autunno": III. Allegro
DR14 -1.71 dB -22.22 dB 3:14 17-Le Quattro Stagione, Concerto in F Minor "L’Inverno": I. Allegro con molto
DR12 -8.36 dB -25.78 dB 2:05 18-Le Quattro Stagione, Concerto in F Minor "L’Inverno": II. Largo
DR14 -1.75 dB -21.61 dB 3:19 19-Le Quattro Stagione, Concerto in F Minor "L’Inverno": III. Allegro
––––––––––––––––––––––––––––––––––––––––

Number of tracks: 19
Official DR value: DR14

Samplerate: 96000 Hz
Channels: 2
Bits per sample: 24
Bitrate: 2880 kbps
Codec: FLAC
================================================================================


Thanks to the Original customer.