Voces Suaves - Come to My Garden - German Early Baroque Lovesongs (2018) [Official Digital Download 24/96]

Posted By: SERTiL
Voces Suaves - Come to My Garden - German Early Baroque Lovesongs (2018) [Official Digital Download 24/96]

Voces Suaves - Come to My Garden - German Early Baroque Lovesongs (2018)
FLAC (tracks) 24-bit/96 kHz | Time - 69:48 minutes | 1.40 GB
Studio Master, Official Digital Download | Artwork: Digital Booklet

The main composers presented here are Johann Hermann Schein and Melchior Franck, the essential representatives of early German baroque. Schein and Franck were almost exact contemporaries of each other, and developed their respective careers not fifty leagues apart – Coburg for Franck, Leipzig for Schein, who was, remember, a predecessor of Bach's in the role of Cantor of Saint Thomas – but it seems they never met. It must be said that during the 30 Years' War, journeys were not undertaken lightly, and people were much more concerned with not getting gutted, infected with the plague, or killed by starvation than they were with taking day-trips from town to town. It's also startling that so many works have survived to the present day, including in particular the Hohelied Salomos from 1608 – the "Song of Solomon" by Franck, and Schein's collection of Musica boscareggia dating from 1621/28 and the Diletti pastorali of 1628, including several love motets, presented here by Jörg-Andreas Bötticher's instrumental and vocal ensemble Voces suaves. By way of historical reference point, we also here two pieces by Palestrina – after all, the German baroque was greatly influenced by the Italian madrigal – performed in their instrumental version as ornamented by two famous cornettists of the time, Luigi Zenobi and Antonio Bassiano, who have left us many examples of the art of musical variation and ornamentation as they practised it.

Tracklist:
01. Toccata per Organo (Improvisation)
02. Das Hohelied Salomos: Steh auf, meine Freundin
03. Das Hohelied Salomos: Siehe meine Freundin
04. Das Hohelied Salomos: Wie schön und lieblich
05. Das Hohelied Salomos: Mein Freund komme in seinen Garten
06. Tota pulchra es
07. O Filli, schön und subtil
08. Amor heut triumphieret
09. O brennende Äugelein
10. O seidene Härelein
11. O Sternenäugelein
12. Passameza
13. In Filli schönen Äugelein
14. Cupido blind, das Venuskind
15. O Amarilli zart
16. Pulchra es amica mea
17. Das Hohelied Salomos: Wo ist denn dein Freund hingegangen
18. Das Hohelied Salomos: Ich sucht des Nachts in meinem Bett
19. Das Hohelied Salomos: Fahet uns die Füchse
20. Canzona per Cembalo (Improvisation)
21. Das Hohelied Salomos: Setze mich wie ein Siegel auf dein Herz

foobar2000 1.3.7 / Dynamic Range Meter 1.1.1
log date: 2018-05-29 21:16:27

––––––––––––––––––––––––––––––––––––––––
Analyzed: Jorg-Andreas Botticher, Plamena Nikitassova, Matthias Muller, Ori Harmelin / Come to My Garden - German Early Baroque Lovesongs (1)
Jorg-Andreas Botticher, Plamena Nikitassova, Matthias Muller, William Dongois, Ori Harmelin / Come to My Garden - German Early Baroque Lovesongs (2)
Jorg-Andreas Botticher, Voces Suaves / Come to My Garden - German Early Baroque Lovesongs (3-18)
Jorg-Andreas Botticher, William Dongois, Ori Harmelin / Come to My Garden - German Early Baroque Lovesongs (19)
Jorg-Andreas Botticher / Come to My Garden - German Early Baroque Lovesongs (20-21)
––––––––––––––––––––––––––––––––––––––––

DR Peak RMS Duration Track
––––––––––––––––––––––––––––––––––––––––
DR11 -1.42 dB -16.74 dB 4:38 06-Tota pulchra es
DR12 -0.88 dB -15.53 dB 5:57 12-Passameza
DR9 0.00 dB -11.92 dB 4:37 02-Das Hohelied Salomos: Steh auf, meine Freundin
DR9 0.00 dB -12.03 dB 3:49 03-Das Hohelied Salomos: Siehe meine Freundin
DR9 0.00 dB -11.91 dB 3:28 04-Das Hohelied Salomos: Wie schon und lieblich
DR10 0.00 dB -13.79 dB 2:43 05-Das Hohelied Salomos: Mein Freund komme in seinen Garten
DR11 0.00 dB -14.60 dB 4:33 07-O Filli, schon und subtil
DR12 -0.45 dB -15.94 dB 3:27 08-Amor heut triumphieret
DR14 -0.19 dB -17.33 dB 4:14 09-O brennende Augelein
DR11 -0.41 dB -14.50 dB 4:28 10-O seidene Harelein
DR10 0.00 dB -14.47 dB 3:55 11-O Sternenaugelein
DR11 -0.14 dB -15.51 dB 2:38 13-In Filli schonen Augelein
DR11 -0.24 dB -15.08 dB 2:56 14-Cupido blind, das Venuskind
DR13 -0.23 dB -17.62 dB 3:59 15-O Amarilli zart
DR11 -0.09 dB -14.91 dB 2:50 17-Das Hohelied Salomos: Wo ist denn dein Freund hingegangen
DR11 -0.18 dB -13.97 dB 2:18 18-Das Hohelied Salomos: Ich sucht des Nachts in meinem Bett
DR11 -0.18 dB -15.06 dB 2:00 19-Das Hohelied Salomos: Fahet uns die Fuchse
DR10 -0.08 dB -13.12 dB 2:06 21-Das Hohelied Salomos: Setze mich wie ein Siegel auf dein Herz
DR11 -3.11 dB -15.70 dB 3:57 16-Pulchra es amica mea
DR8 -5.41 dB -16.61 dB 0:48 01-Toccata per Organo (Improvisation)
DR12 -9.17 dB -25.21 dB 0:34 20-Canzona per Cembalo (Improvisation)
––––––––––––––––––––––––––––––––––––––––

Number of tracks: 21
Official DR value: DR11

Samplerate: 96000 Hz
Channels: 2
Bits per sample: 24
Bitrate: 2855 kbps
Codec: FLAC
================================================================================


Thanks to the Original customer.