Royal Scottish National Orchestra, Neeme Järvi - Wagner: Meistersinger, an Orchestral Tribute (2011) [24/96]

Posted By: SERTiL
Royal Scottish National Orchestra, Neeme Järvi - Wagner: Meistersinger, an Orchestral Tribute (2011) [24/96]

Royal Scottish National Orchestra, Neeme Järvi - Wagner: Meistersinger, an Orchestral Tribute (2011)
FLAC (tracks) 24-bit/96 kHz | Time - 79:45 minutes | 1.29 GB
Studio Master, Official Digital Download | Artwork: Digital booklet

Neeme Järvi conducts the Royal Scottish National Orchestra in the fourth album of their Wagner series. Their performances on the previous three volumes have received high critical acclaim. American Record Guide wrote of Volume 1: This is wonderful playing and sound Järvi knows exactly what to do to make the music speak. The orchestra sounds better than Ive ever heard them. This disc features a symphonic arrangement by the Dutch composer and percussionist Henk de Vlieger of Wagners only comic opera, Die Meistersinger von Nürnberg. It is the only opera by Wagner centred round a specific time and place in history, rather than a mythical or legendary past. The story takes place in Nuremberg during the middle of the sixteenth century, and revolves around the real-life guild of the Master Singers, an association of amateur poets and musicians who developed a craftsman-like approach to music-making. Wagner left the two early Entreactes tragiques unfinished, the first only partially orchestrated, and they are heard here in orchestrations completed by De Vlieger. Completing the disc are the seldom performed and recorded Overture to Columbus, and Eine Faust-Ouvertüre by Wagner. Written in 1835, when Wagner was just twenty-two years old, the Weber-influenced Columbus Overture introduces the play by Theodor Apel. His Faust-Overture followed in 1840. Taking its inspiration from Goethes famous play, this work, together with Hector Berliozs Symphonie fantastique, became the main example of nineteenth-century programme music. This is a hybrid SACD

Conductor Neemi Jarvi pushes the excellent Royal Scottish National Orchestra through the score at a fair lick,and brings a bouncy,Tiggerish feel to the proceedings. *** –Classic fm Magazine,Nov'11

It all sounds superb,and on SACD,better still. Performance **** Recording ***** –BBC Music Magazine.Christmas'11

TRACKLIST

Richard Wagner (1813-1883)

Die Meistersinger von Nurnberg (The Mastersingers of Nuremberg)
(an Orchestral Tribute, arr. H. de Vlieger)
01. I. Vorspiel (9:25)
02. II. Versammlung der Meistersinger (5:06)
03. III. Gesang der Lehrbuben (2:25)
04. IV. Sachsens Monologue (2:59)
05. V. Vorspiel III (4:52)
06. VI. Taufspruch (3:17)
07. VII. Zöge der Zönfte (5:04)
08. VIII. Tanz der Lehrbuben (2:56)
09. IX. Aufzug der Meistersinger (2:44)
10. X. Walther's Preislied (5:48)
11. XI. Schlussgesang (3:24)

Eine Faust-Overture (A Faust Overture)
12. Eine Faust Ouverture (11:11)

Deux Entreactes tragiques (arr. H. de Vlieger)
13. I. Allegro (8:17)
14. II. Allegro con brio (4:17)

Overture to Сolumbus (arr. F. Mottl)
15. Overture to Columbus (8:05)

PERSONNEL
Royal Scottish National Orchestra
Neeme Järvi - conductor

foobar2000 1.3.7 / Dynamic Range Meter 1.1.1
log date: 2017-04-16 13:05:58

––––––––––––––––––––––––––––––––––––––––
Analyzed: Royal Scottish National Orchestra, Neeme Järvi / Wagner: Meistersinger, an Orchestral Tribute
––––––––––––––––––––––––––––––––––––––––

DR Peak RMS Duration Track
––––––––––––––––––––––––––––––––––––––––
DR15 -1.79 dB -21.25 dB 9:25 01-Die Meistersinger von Nurnberg: I. Vorspiel: I. Sehr massig bewegt - Bewegt, doch immer noch etwas breit - Massig im Hauptzeitmass - Im massigen Hauptzeitmass - Sehr gewichtig
DR14 -7.79 dB -28.80 dB 5:06 02-Die Meistersinger von Nurnberg: II. Versammlung der Meistersinger: Massig - Etwas zuruckhaltend
DR12 -11.26 dB -27.85 dB 2:25 03-Die Meistersinger von Nurnberg: III. Gesang der Lehrbuben: Lebhaft, doch nicht zu schnell - Gemachlich
DR11 -11.25 dB -28.72 dB 2:59 04-Die Meistersinger von Nurnberg: IV. Sachsens Monologue: Lebhaft - Sehr massig - Sehr breit - Massig langsam - Ein wenig belebend - Sehr breit
DR12 -13.16 dB -33.42 dB 4:52 05-Die Meistersinger von Nurnberg: V. Vorspiel III: Etwas gedehnt - Sehr feierlich - Etwas zogernd - Sehr breit
DR12 -14.75 dB -32.33 dB 3:17 06-Die Meistersinger von Nurnberg: VI. Taufspruch: Langsam, doch leicht fliessend
DR14 -3.94 dB -23.26 dB 5:04 07-Die Meistersinger von Nurnberg: VII. Zöge der Zönfte: Gleiche Bewegung - Allmahlich etwas belebter im Zeitmass - Ein wenig zuruckhaltend - Wieder im fruheren Zeitmass
DR13 -7.31 dB -25.70 dB 2:56 08-Die Meistersinger von Nurnberg: VIII. Tanz der Lehrbuben: Lebhaft – Massiges Walzer-Zeitmass
DR13 -2.74 dB -21.65 dB 2:44 09-Die Meistersinger von Nurnberg: IX. Aufzug der Meistersinger: Massig – Sehr massig und zogernd
DR14 -8.63 dB -29.31 dB 5:48 10-Die Meistersinger von Nurnberg: X. Walther's Preislied: Sehr massig - Ein wenig zuruckhaltend - Allmahlich wieder in etwas bewegterem fruheren - Zeitmass - Zuruckhaltend - Sehr massig und zogernd
DR12 -0.17 dB -19.28 dB 3:24 11-Die Meistersinger von Nurnberg: XI. Schlussgesang: Schnell - Massig bewegt - Etwas breiter
DR15 -2.96 dB -26.08 dB 11:11 12-Eine Faust Ouverture: Sehr gehalten - Sehr bewegt - Sehr allmählich das Tempo etwas zurückhalten -
DR15 -4.15 dB -26.42 dB 8:17 13-Deux Entreactes tragiques: I. Allegro
DR15 -7.16 dB -28.51 dB 4:17 14-Deux Entreactes tragiques: II. Allegro con brio - Adagio - Tempo I
DR14 -0.99 dB -21.17 dB 8:05 15-Overture to Columbus: Allegro molto agitato - Andante maestoso - Tempo I - Andante maestoso
––––––––––––––––––––––––––––––––––––––––

Number of tracks: 15
Official DR value: DR13

Samplerate: 96000 Hz
Channels: 2
Bits per sample: 24
Bitrate: 2453 kbps
Codec: FLAC
================================================================================


Royal Scottish National Orchestra, Neeme Järvi - Wagner: Meistersinger, an Orchestral Tribute (2011) [24/96]


Thanks to the Original customer.