Walker Hayes - boom (2017) [Official Digital Download]

Posted By: Pisulik
Walker Hayes - boom (2017) [Official Digital Download]

Walker Hayes - boom (2017)
FLAC (tracks) 24-bit/48 kHz | Time - 31:05 minutes | 376 MB
Studio Master, Official Digital Download | Artwork: Front cover

Waler Hayes has risen from the ashes in his second/debut album ‘Boom‘. After his first album, “Reason To Rhyme” didn’t quite go to plan Hayes took a completely different source of inspiration in his music; songs from the heart. Of the 10 tracks on the album, Hayes wrote or co-wrote every single one of them with ideas that sprout from the darkest days to simple life hearted moments .

The album opens up with “Beautiful“, a song which instantly shows his quirky songwriting talent. The beat in each of his records does not follow the ‘three chords’ approach, but offers a song that flows and yet has contrasting chords and lyrics embedded into each song. In “Beautiful“, Hayes blends a mix of sing with rap as he recounts a lost love and finds it nearly impossible to forget about her. His debut record on the album “You Broke Up With Me” has a similar feel to the first track on the album, but is altogether different as he seems to almost laugh at the idea of a woman trying to get back with him.

A sharp and edgy track on the album, “Shut Up Kenny” also looks into heartbreak, but blames a certain country superstar for reminding him of the good times. His ‘Sam Hunt’ style of blending singing with rapping really suits the conversational tone of the song as he combines fast lyrics with moments that allow for reflection. “Halloween” is a very different record to what it first appears, as Hayes uses the idea of Halloween costumes to define all the images he has hid behind as he grew up.

Some of the stand out tracks on the record include the romantically sweet “Mind Candy” which takes Hayes on a nostalgic trip to the early days of a sweet romance. “Mind Candy” like any song on the record, the story telling is one of the key strengths and sheer depth and content in the songs are impressive. “Beckett” is also one of the more light-hearted records on the album as he wishes to have the freedom and simple life of the 4 year old boy Beckett.

“Craig” is arguably one of the most poignant single on the album and it is the story behind the song that makes it all the more powerful. In the darkest days, Hayes found support and love from one of the “church folks” Craig and consequently the song was written for him.

Although the album can’t exactly be classed as a ‘country album’, the messages and heart in each song definitely fit the genre. Hayes shows depth, integrity and growth as an artist in ‘Boom’ and finds his true niche in the market for his album.

Tracklist:

01. Beautiful
02. Shut Up Kenny
03. You Broke Up with Me
04. Halloween
05. Dollar Store
06. Beer in the Fridge
07. Beckett
08. Mind Candy
09. Prescriptions
10. Craig

foobar2000 1.3.7 / Dynamic Range Meter 1.1.1
log date: 2017-12-08 02:57:29

––––––––––––––––––––––––––––––––––––––––
Analyzed: Walker Hayes / boom
––––––––––––––––––––––––––––––––––––––––

DR Peak RMS Duration Track
––––––––––––––––––––––––––––––––––––––––
DR5 -0.81 dB -8.44 dB 3:00 01-Beautiful
DR6 -0.50 dB -9.04 dB 3:01 02-Shut Up Kenny
DR7 -0.50 dB -9.37 dB 3:17 03-You Broke Up with Me
DR7 -0.40 dB -9.10 dB 3:21 04-Halloween
DR7 -0.50 dB -8.74 dB 3:17 05-Dollar Store
DR11 -0.93 dB -13.93 dB 2:27 06-Beer in the Fridge
DR8 -0.40 dB -9.15 dB 2:56 07-Beckett
DR7 -0.53 dB -8.67 dB 3:40 08-Mind Candy
DR7 -0.40 dB -9.55 dB 3:01 09-Prescriptions
DR8 -0.40 dB -9.95 dB 3:10 10-Craig
––––––––––––––––––––––––––––––––––––––––

Number of tracks: 10
Official DR value: DR7

Samplerate: 48000 Hz
Channels: 2
Bits per sample: 24
Bitrate: 1680 kbps
Codec: FLAC
================================================================================


All thanks go to the original releaser