Waylon Jennings - Good Hearted Woman (1972/2013) [Official Digital Download 24/96]

Posted By: Pisulik
Waylon Jennings - Good Hearted Woman (1972/2013) [Official Digital Download 24/96]

Waylon Jennings - Good Hearted Woman (1972/2013)
FLAC (tracks) 24-bit/96 kHz | Time - 28:51 minutes | 607 MB
Studio Master, Official Digital Download | Artwork: Front cover, Digital cover

Good Hearted Woman is Waylon Jennings’ 1972 classic. The album saw Jennings transform into one of the key figures of the outlaw country movement. Good Hearted Woman found Jennings in peak form, showcasing his unparalleled power. The outing reached #7 on Billboard’s Top Country Albums and features the thrilling hits “Sweet Dream Woman,” “Willie And Laura Mae Jones” and “It Should Be Easier Now.”

Tracklist:

01. Good Hearted Woman
02. The Same Old Lover Man
03. One Of My Bad Habits
04. Willie And Laura Mae Jone
05. It Should Be Easier Now
06. Do No Good Woman
07. Unsatisfied
08. I Knew You'd Be Leavin'
09. Sweet Dream Woman
10. To Beat The Devil

foobar2000 1.3.7 / Dynamic Range Meter 1.1.1
log date: 2017-12-07 01:49:30

––––––––––––––––––––––––––––––––––––––––
Analyzed: Waylon Jennings / Good Hearted Woman
––––––––––––––––––––––––––––––––––––––––

DR Peak RMS Duration Track
––––––––––––––––––––––––––––––––––––––––
DR11 -0.87 dB -15.21 dB 3:04 01-Good Hearted Woman
DR14 0.00 dB -16.33 dB 2:51 02-The Same Old Lover Man
DR12 -1.43 dB -15.81 dB 2:17 03-One Of My Bad Habits
DR13 0.00 dB -15.10 dB 3:01 04-Willie And Laura Mae Jone
DR10 0.00 dB -12.39 dB 3:07 05-It Should Be Easier Now
DR13 -1.91 dB -17.02 dB 2:14 06-Do No Good Woman
DR11 0.00 dB -13.19 dB 2:55 07-Unsatisfied
DR12 0.00 dB -14.78 dB 2:47 08-I Knew You'd Be Leavin'
DR10 0.00 dB -12.62 dB 3:02 09-Sweet Dream Woman
DR11 0.00 dB -13.09 dB 4:03 10-To Beat The Devil
––––––––––––––––––––––––––––––––––––––––

Number of tracks: 10
Official DR value: DR12

Samplerate: 96000 Hz
Channels: 2
Bits per sample: 24
Bitrate: 3060 kbps
Codec: FLAC
================================================================================


All thanks go to the original releaser