Whitesnake - 1987 (30th Anniversary Remaster (1987/2017) [Official Digital Download 24/96]

Posted By: Pisulik
Whitesnake - 1987 (30th Anniversary Remaster (1987/2017) [Official Digital Download 24/96]

Whitesnake - 1987 (30th Anniversary Remaster (1987/2017)
FLAC (tracks) 24-bit/96 kHz | Time - 53:09 minutes | 1,35 GB
Studio Master, Official Digital Download | Artwork: Front Cover

Whitesnake became a huge success around the world, selling multi million copies. It peaked at #2 on the Billboard album chart and spawned four popular singles: “Still Of The Night,” “Give Me All Your Love,” “Is This Love” (which reached #2) and the #1 hit “Here I Go Again.” Including the newly remastered album expanded with a selection of unreleased bonus recordings.

After eight studio albums in 10 years Whitesnake had managed to keep hard rock relevant, in an ever-changing '80s rock market in the UK, while America had yet to fully embrace the band. Bandleader, singer, songwriter David Coverdale was sidelined with a potentially career-ending chronic sinus infection midway through this project. Coverdale reveals to IN THE STUDIO producer and host Redbeard just how serious his health scare was.

"He (the doctor) put a small flashlight into my mouth… and said, 'This is the worst sinus infection I've ever seen, I'm surprised you could even talk'," remembers Coverdale. " I came back and prepared for surgery and a 50% chance I would never be able to perform again."

Tracklist:

01. Still of the Night (2017 Remastered Version)
02. Give Me All Your Love (2017 Remastered Version)
03. Bad Boys (2017 Remastered Version)
04. Is This Love (2017 Remastered Version)
05. Here I Go Again 87 (2017 Remastered Version)
06. Straight for the Heart (2017 Remastered Version)
07. Looking for Love (2017 Remastered Version)
08. Children of the Night (2017 Remastered Version)
09. You're Gonna Break My Heart Again (2017 Remastered Version)
10. Crying in the Rain (2017 Remastered Version)
11. Don't Turn Away (2017 Remastered Version)

Personal:

David Coverdale - vocals
John Sykes - guitar
Neil Murray - bass
Aynsley Dunbar - drums, percussion

foobar2000 1.3.7 / Dynamic Range Meter 1.1.1
log date: 2017-10-10 13:16:25

––––––––––––––––––––––––––––––––––––––––
Analyzed: Whitesnake / 1987 (30th Anniversary Remaster)
––––––––––––––––––––––––––––––––––––––––

DR Peak RMS Duration Track
––––––––––––––––––––––––––––––––––––––––
DR6 -0.51 dB -8.46 dB 6:40 01-Still of the Night (2017 Remastered Version)
DR7 -0.52 dB -7.92 dB 3:30 02-Give Me All Your Love (2017 Remastered Version)
DR7 -0.51 dB -8.67 dB 4:08 03-Bad Boys (2017 Remastered Version)
DR7 -0.51 dB -9.63 dB 4:45 04-Is This Love (2017 Remastered Version)
DR7 -0.51 dB -9.29 dB 4:35 05-Here I Go Again 87 (2017 Remastered Version)
DR7 -0.51 dB -8.57 dB 3:38 06-Straight for the Heart (2017 Remastered Version)
DR7 -0.51 dB -9.52 dB 6:35 07-Looking for Love (2017 Remastered Version)
DR7 -0.51 dB -8.16 dB 4:23 08-Children of the Night (2017 Remastered Version)
DR7 -0.51 dB -8.22 dB 4:12 09-You're Gonna Break My Heart Again (2017 Remastered Version)
DR7 -0.51 dB -8.70 dB 5:38 10-Crying in the Rain (2017 Remastered Version)
DR7 -0.51 dB -8.86 dB 5:10 11-Don't Turn Away (2017 Remastered Version)
––––––––––––––––––––––––––––––––––––––––

Number of tracks: 11
Official DR value: DR7

Samplerate: 96000 Hz
Channels: 2
Bits per sample: 24
Bitrate: 3559 kbps
Codec: FLAC
================================================================================


All thanks go to the original releaser