Wiener Symphoniker / Yakov Kreizberg - Bruckner: Symphony No.7 (2005) [SACD ISO+HiRez FLAC]

Posted By: tiburon
Wiener Symphoniker / Yakov Kreizberg - Bruckner: Symphony No.7 (2005) [SACD ISO+HiRez FLAC]

Wiener Symphoniker / Yakov Kreizberg - Bruckner: Symphony No.7 (2005)
PS3 Rip | SACD ISO | DST64 2.0 & DST64 5.0 >1-bit/2.8224 MHz | Digital Booklet | 3.49GB + 5% Recovery
FLAC Image+CUE 2.0 24bit/88.2 kHz | Digital Booklet | 1.08GB + 5% Recovery

Of Anton Bruckner’s 11 symphonies, the perennially popular 7th in E major is his most consistently melodious, evenly paced, & lyrically flowing, with comparatively few false starts, awkward pauses, or tedious fanfares. For this exceptional hybrid SACD from PentaTone, Yakov Kreizberg & the Vienna Symphony deliver 1 of the smoothest & roundest performances of the symphony heard in years. Yet it might actually be too polished for the liking of some old-guard Bruckner fans, who may argue that the orchestra is too mellow, luscious, & soft, & that Kreizberg’s inflections & phrases are too nuanced & sensual for the composer’s pure, almost sacred, intentions. But more important than the undeniably rich tonal quality found here is the interpretation, which draws on the style of Wagner’s most ardent music; some of the more ecstatic passages of Lohengrin & Tristan und Isolde may come to mind when one hears this disc. There is no reason why Bruckner’s symphonies must always sound chaste, devotional, or like ponderously orchestrated organ music, for they are secular works by a passionate man who wished especially to be counted in the Wagner camp, & who would have relished hearing such an emotive account as this. It also helps to remember that Wagner’s death inspired the slow movement of this work, & it should be taken as Bruckner’s most heartfelt tribute to the Bayreuth master. Purists may let Kreizberg’s recording pass by unheard, but anyone who wants to hear the symphony played with full-blown emotions & lush, late-Romantic timbres need look no further. The reproduction on this album is especially gorgeous & enjoyable, so in the unlikely event that the performance disappoints, the sound is still 1st-rate & sure to delight audiophiles.
Track List
1. I. Allegro moderato Wiener Symphoniker 21:42
2. II. Adagio: Sehr feierlich und sehr langsam Wiener Symphoniker 23:08
3. III. Scherzo: Sehr schnell Wiener Symphoniker 9:59
4. IV. Finale: Bewegt, doch nicht schnell 12:41

musicians
Wiener Symphoniker
Yakov Kreizberg

Recording:

Cables: Van der Hul
Digital Converters: Meitner
Mastering Equipment: B&W Nautilus
Microphones: Schoeps Nk2, DPA 4006
Recording Engineer: Erdo Groot, Roger de Schot
Recording location: Konzerthous, Vienna Austria
Recording Type & Bit Rate: DSD64

Produced by Job Maarse


17170509[0x106004d]: SACD-Ripper Version 0.36
17170509[0x106004d]: config: 00 00 00 0c 00 00 00 00 ff 41 00 04 00 00 00 00
17170509[0x106004d]: config: 00 00 00 00 00 00 00 00 00 00 00 00 00 00 00 00
17170509[0x106004d]: config: 00 00 00 00 00 00 00 00 00 00 00 00 00 00 00 00
17170509[0x106004d]: config: 00 00 00 00 00 00 00 00 00 00 00 00 00 00 00 00
17170509[0x106004d]: device_info: 75 6e 6e 61 6d 65 5c 10 80 00 00 00 00 5d 50 00
17170509[0x106004d]: device_info: 80 00 00 00 10 14 1e 70 80 00 00 00 00 52 38 00
17170509[0x106004d]: device_info: 00 00 00 00 00 00 00 00 00 00 00 00 7f ff ff ff
17170509[0x106004d]: device_info: 00 00 08 00 00 00 00 01 00 01 01 00 00 00 00 01
17170509[0x106004d]: disc inserted..
17170509[0x106004d]: config: 00 00 00 0c 00 00 00 10 ff 41 01 04 00 00 00 00
17170509[0x106004d]: config: 00 00 00 00 00 00 00 00 00 00 00 00 00 00 00 00
17170509[0x106004d]: config: 00 00 00 00 00 00 00 00 00 00 00 00 00 00 00 00
17170509[0x106004d]: config: 00 00 00 00 00 00 00 00 00 00 00 00 00 00 00 00
17170509[0x106004d]: device_info: 75 6e 6e 61 6d 65 5c 10 80 00 00 00 00 5d 50 00
17170509[0x106004d]: device_info: 80 00 00 00 10 14 1e 70 80 00 00 00 00 52 38 00
17170509[0x106004d]: device_info: 00 00 00 00 00 00 00 00 00 00 00 00 00 1b cc 90
17170509[0x106004d]: device_info: 00 00 08 00 00 00 00 01 00 01 01 00 00 00 00 01
17170509[0x106004d]: Album Title: Anton Bruckner - Symphony No. 7 in E major
17170509[0x106004d]: Album Artist: Wiener Symphoniker, conducted by Yakov Kreizberg
17170509[0x106004d]: Disc Version: 01.20
17170509[0x106004d]: config: 00 00 00 0c 00 00 00 10 ff 41 01 04 00 00 00 00
17170509[0x106004d]: config: 00 00 00 00 00 00 00 00 00 00 00 00 00 00 00 00
17170509[0x106004d]: config: 00 00 00 00 00 00 00 00 00 00 00 00 00 00 00 00
17170509[0x106004d]: config: 00 00 00 00 00 00 00 00 00 00 00 00 00 00 00 00
17170509[0x106004d]: device_info: 75 6e 6e 61 6d 65 5c 10 80 00 00 00 00 5d 50 00
17170509[0x106004d]: device_info: 80 00 00 00 10 14 1e 70 80 00 00 00 00 52 38 00
17170509[0x106004d]: device_info: 00 00 00 00 00 00 00 00 00 00 00 00 00 1b cc 90
17170509[0x106004d]: device_info: 00 00 08 00 00 00 00 01 00 01 01 00 00 00 00 01
17170509[0x106004d]: succeeded. raw_spu number is 0
17170509[0x106004d]: succeeded. entry d0
17170509[0x106004d]: Establishing the interrupt tag on the interrupt PPU thread.
17170509[0x106004d]: ioctl_report_key1[45023901] 0
17170509[0x106004d]: sac_exec_generate_key 0 c9 0
17170509[0x106004d]: ioctl_send_key[2] c9 0
17170509[0x106004d]: ioctl_report_key[2] c8 0
17170509[0x106004d]: sac_exec_validate_key_1[0]
17170509[0x106004d]: sac_exec_generate_key_2[ae] 0
17170509[0x106004d]: ioctl_send_key[3] ae 0
17170509[0x106004d]: ioctl_report_key[3] b0 0
17170509[0x106004d]: sac_exec_validate_key_2[0]
17170509[0x106004d]: ioctl_report_key[4] 30 0
17170509[0x106004d]: sac_exec_validate_key_3[0]
17170509[0x106004d]: ioctl_report_finish [0xff] 0
17170509[0x106004d]: Queuing raw: /dev_usb003/Wiener Symphoniker, conducted by Yakov Kreizberg - Anton Bruckner - Symphony No. 7 in E major.iso, start_lsn: 0, length_lsn: 1821840


––––––––––––––––––––––––––––––––––––––––
Analyzed: Wiener Symphoniker, conducted by Yakov Kreizberg / Anton Bruckner - Symphony No. 7 in E major
––––––––––––––––––––––––––––––––––––––––

DR Peak RMS Duration Track
––––––––––––––––––––––––––––––––––––––––
DR15 -4.48 dB -27.66 dB 21:42 01-Symphony No. 7 in E major, Allegro moderato
DR17 -4.53 dB -28.33 dB 23:08 02-Symphony No. 7 in E major, Adagio. Sehr feierlich und sehr langsam
DR13 -4.54 dB -24.60 dB 10:00 03-Symphony No. 7 in E major, Scherzo. Sehr schnell
DR13 -5.18 dB -24.22 dB 12:41 04-Symphony No. 7 in E major, Finale. Bewegt, doch nicht schnell
––––––––––––––––––––––––––––––––––––––––

Number of tracks: 4
Official DR value: DR15

Samplerate: 2822400 Hz / PCM Samplerate: 88200 Hz
Channels: 2
Bits per sample: 1
Bitrate: 5645 kbps
Codec: DST64
================================================================================


––––––––––––––––––––––––––––––––––––––––––––––––––––––––––-
Analyzed: Wiener Symphoniker - Yakov Kreizberg / Anton Bruckner - Symphony No. 7 in E major
––––––––––––––––––––––––––––––––––––––––––––––––––––––––––-
DR Peak RMS Duration Track
––––––––––––––––––––––––––––––––––––––––––––––––––––––––––-
DR15 -0.01 dB -23.21 dB 21:51 01-Symphony No. 7 in E major, Allegro moderato
DR17 -0.05 dB -23.87 dB 23:14 02-Symphony No. 7 in E major, Adagio. Sehr feierlich und sehr langsam
DR13 -0.06 dB -20.16 dB 10:06 03-Symphony No. 7 in E major, Scherzo. Sehr schnell
DR13 -0.71 dB -19.74 dB 12:41 04-Symphony No. 7 in E major, Finale. Bewegt, doch nicht schnell
––––––––––––––––––––––––––––––––––––––––––––––––––––––––––-
Number of tracks: 4
Official DR value: DR15

Samplerate: 88200 Hz
Channels: 2
Bits per sample: 24
Bitrate: 2252 kbps
Codec: FLAC
========================================================================


Gain for FLAC Image = 4.48 dB

Thanks to the original ripper