Nils Mönkemeyer - William Walton, Max Bruch, Arvo Pärt (2017) [Official Digital Download]

Posted By: SERTiL
Nils Mönkemeyer - William Walton, Max Bruch, Arvo Pärt (2017) [Official Digital Download]

Nils Mönkemeyer - William Walton, Max Bruch, Arvo Pärt (2017)
FLAC (tracks) 24-bit/48 kHz | Time - 58:45 minutes | 571 MB
Studio Master, Official Digital Download | Artwork: Digital booklet

For his new album, Nils Mönkemeyer chose works by William Walton, Max Bruch, and Arvo Pärt. The album starts with Walton’s Viola Concerto and continues with two of Bruch’s compositions: Mönkemeyer recorded Bruch’s Romance for Viola and Orchestra as well as an arrangement of his “Kol Nidrei” (originally for cello and orchestra). Finally, the album contains Pärt’s “Fratres”, arranged for viola, string orchestra and percussion. Mönkemeyer’s musical partners for the recording were the Bamberger Symphoniker conducted by Markus Poschner.

TRACKLIST

William Walton (1902 - 1983)

Concerto for Viola and Orchestra
1 I. Andante comodo 08:38
2 II. Vivo e molto preciso 04:27
3 III. Allegro moderato 14:04

Max Bruch (1838 - 1920)

4 Kol Nidrei, Op. 47 (Arr. for Viola and Orchestra) 10:42
5 Romance for Viola and Orchestra, Op. 85 09:44

Arvo Pärt (1935)

6 Fratres for Viola, Strings and Drums 11:11

PERSONNEL
Nils Mönkemeyer, viola
Bamberg Symphony Orchestra
Markus Poschner, conductor

foobar2000 1.3.7 / Dynamic Range Meter 1.1.1
log date: 2017-08-19 16:35:35

––––––––––––––––––––––––––––––––––––––––
Analyzed: Nils Mönkemeyer / William Walton, Max Bruch, Arvo Pärt
––––––––––––––––––––––––––––––––––––––––

DR Peak RMS Duration Track
––––––––––––––––––––––––––––––––––––––––
DR16 -0.20 dB -23.29 dB 8:38 01-Concerto for Viola and Orchestra: I. Andante comodo
DR14 -0.48 dB -20.04 dB 4:27 02-Concerto for Viola and Orchestra: II. Vivo e molto preciso
DR14 -0.17 dB -20.75 dB 14:04 03-Concerto for Viola and Orchestra: III. Allegro moderato
DR13 -4.67 dB -24.16 dB 10:42 04-Kol Nidrei, Op. 47 (Arr. for Viola and Orchestra)
DR14 -1.72 dB -22.32 dB 9:44 05-Romance for Viola and Orchestra, Op. 85
DR14 -4.15 dB -24.49 dB 11:12 06-Fratres for Viola, Strings and Drums
––––––––––––––––––––––––––––––––––––––––

Number of tracks: 6
Official DR value: DR14

Samplerate: 48000 Hz
Channels: 2
Bits per sample: 24
Bitrate: 1315 kbps
Codec: FLAC
================================================================================


Thanks to the Original customer.