Yes ‎– The Yes Album {UK, Plum Pressing} Vinyl Rip 24/96

Posted By: saidalani
 Yes ‎– The Yes Album  {UK, Plum Pressing} Vinyl Rip 24/96

Yes - The Yes Album (1971)
Vinyl rip in 24 Bit/96 kHz | FLAC | Artwork HR | 950 Mb, 4% RAR Recovery
Atlantic ‎– 2400 101 (Uk, Plum Pressing, 1971) | Prog Rock

 Yes ‎– The Yes Album  {UK, Plum Pressing} Vinyl Rip 24/96

Tracklist
1 Yours In No Disgrace 9:26
2 The Clap 3:07
3 Starship Trooper: 9:23
3.1 Life Seeker
3.2 Disillusion
3.3 Würm
4 I've Seen All Good People: 6:47
4.1 Your Move
4.2 All Good People
5 A Venture 3:13
6 Perpetual Change 8:50

Yes
John Anderson – lead vocals, percussion
Chris Squire – bass guitar, vocals
Steve Howe – electric and acoustic guitars, vachalia, vocals
Tony Kaye – piano, organ, Moog
Bill Bruford – drums, percussion



RIG:
SHUNYATA RESEARCH HYDRA V-RAY VERSION II (Power distribution, conditioner and filter)
RECORD REVIRGINIZER vinyl record cleaner.
RCM: Clearaudio Smart Matrix (ClearAudio Pure Groove + L’Art du Son Cleaning Fluid + Osage brush)
Ultrasonic Cleaning (40 kHz) for 30′-60' at 35°C max. with personal blend of wetting agents and surfactants.
TURNTABLE: Dr. Feickert Blackbird + INERTIA platter
TONEARM: Reed 3Q 10,5" (Finewire C37 + Cryo WBT Nextgen, Armwand Pernambuco, Headshell with VTA and Azimuth laser adjustment)
CARTRIDGE: Dynavector DV DRT XV-1t
PHONO STAGE: Allnic H-3000 (+22 dB GAIN, charge impedance 177 Ohm)
ADC SYSTEM: Lavry Black AD11 external USB 2.0 ADC

Vinyl condition: EX
Minimal manual declick with iZotopeRX





DR Peak RMS Duration Track
––––––––––––––––––––––––––––––––––––––––
DR12 -0.49 dB -15.68 dB 9:42 ?-A1 Yours In No Disgrace
DR17 -1.90 dB -23.22 dB 3:17 ?-A2 The Clap
DR11 -1.48 dB -15.61 dB 9:26 ?-A3 Starship Trooper
DR11 -1.43 dB -17.05 dB 6:56 ?-B1 I've Seen All Good People
DR12 -2.60 dB -18.05 dB 3:20 ?-B2 A Venture
DR11 -2.47 dB -17.09 dB 8:50 ?-B3 Perpetual Change
––––––––––––––––––––––––––––––––––––––––

Number of tracks: 6
Official DR value: DR12

Samplerate: 96000 Hz
Channels: 2
Bits per sample: 24
Bitrate: 2800 kbps
Codec: FLAC
=====================================================

NITROFLARE
Password: PataNegra