Accept - The Rise Of Chaos (2017) [Official Digital Download]

Posted By: HDV
Accept - The Rise Of Chaos (2017) [Official Digital Download]

Accept - The Rise Of Chaos (2017)
FLAC (tracks) 24-bit/48 kHz | Time - 46:31 minutes | 663 MB
Studio Master, Official Digital Download | Artwork: Front cover

The Rise of Chaos is the fifteenth studio album by German heavy metal band Accept, released on August 4, 2017. This is the first Accept album with guitarist Uwe Lulis and drummer Christopher Williams, replacing Herman Frank and Stefan Schwarzmann respectively. Like their previous three studio albums, The Rise of Chaos was produced by Andy Sneap, making it the band's fourth collaboration with him. Guitarist Wolf Hoffmann has stated that the album's title refers to the human-caused chaos in the world.

ACCEPT speed around the corner with their new album 'The Rise Of Chaos', which will cement their status as genre leaders once again. Guitarist Wolf Hoffmann comments on the album title, "'The Rise Of Chaos' is something I have been thinking about often. It describes a condition which is slowly spreading around the world. With the stage setup on our latest European tour, we wanted to portray rather dystopian and destroyed scenery. If you now take a look at our new cover, it's the same imagery." ACCEPT continue along the path they started with their three previous records, which is why the band has recorded their 4th studio album since 2010 once again with Andy Sneap (Machine Head, Megadeth). The galloping drums, lightning guitars and trademark choir of album opener 'Die By The Sword' instantly prove they're still the top dog when it comes to top-notch Teutonic metal. Second track 'Hole In The Head' leaves no time to breathe, before the title track kick-starts and tries to pummel its way through the listener's ears. After consuming the upcoming 'Koolaid' shake, other highlights include the thoughtful 'Worlds Colliding' and the frenetic 'Carry The Weight'. After 45 minutes, the closer, 'Race To Extinction', lets the record fade out fittingly. The songs from 'The Rise Of Chaos' will be performed for the very first time at Wacken Open Air 2017's 'Night To Remember'. The last and concluding third part of this once in a lifetime evening will be fulfilled with a classic ACCEPT set alongside the orchestra. Wolf Hoffmann states, " We want to present something that ACCEPT has never done before, we hope we can give something really special to the fans".

Tracklist:

01 - Die By The Sword
02 - Hole In The Head
03 - The Rise Of Chaos
04 - Koolaid
05 - No Regrets
06 - Analog Man
07 - What's Done Is Done
08 - Worlds Colliding
09 - Carry The Weight
10 - Race To Extinction

Musicians:
Mark Tornillo – vocals
Wolf Hoffmann – guitars
Uwe Lulis – guitars
Peter Baltes – bass
Christopher Williams – drums


Analyzed: Accept / The Rise Of Chaos
––––––––––––––––––––––––––––––––––––––––

DR Peak RMS Duration Track
––––––––––––––––––––––––––––––––––––––––
DR6 -0.98 dB -8.15 dB 5:01 01-Die By The Sword
DR6 -0.98 dB -8.35 dB 4:02 02-Hole In The Head
DR6 -0.97 dB -7.66 dB 5:17 03-The Rise Of Chaos
DR6 -0.99 dB -9.14 dB 5:00 04-Koolaid
DR6 -0.97 dB -7.70 dB 4:21 05-No Regrets
DR6 -0.97 dB -8.66 dB 4:11 06-Analog Man
DR6 -0.98 dB -8.16 dB 4:09 07-What's Done Is Done
DR5 -0.96 dB -7.78 dB 4:31 08-Worlds Colliding
DR6 -0.97 dB -7.92 dB 4:35 09-Carry The Weight
DR6 -0.98 dB -8.23 dB 5:25 10-Race To Extinction
––––––––––––––––––––––––––––––––––––––––

Number of tracks: 10
Official DR value: DR6

Samplerate: 48000 Hz
Channels: 2
Bits per sample: 24
Bitrate: 1854 kbps
Codec: FLAC
================================================================================


Thanks to the Original customer!