Albert King - King Of The Blues Guitar (1969/2014) [Official Digital Download 24-bit/192kHz]

Posted By: HDV
Albert King - King Of The Blues Guitar (1969/2014) [Official Digital Download 24-bit/192kHz]

Albert King - King Of The Blues Guitar (1969/2014)
FLAC (tracks) 24-bit/192 kHz | Time - 34:13 minutes | 766 MB
Studio Mono Master, Official Digital Download | Artwork: Front cover

The cream of the crop of the blues legend's acclaimed '60s Stax Records work. "King of the Blues Guitar" is a compilation disc by blues guitarist and vocalist, Albert King. The album includes, "Born Under A Bad Sign", "Oh, Pretty Woman", and "The Very Thought of You".

Atlantic's original vinyl edition of this was comprised of Albert's Stax singles – a few from Born Under a Bad Sign, along with "Cold Feet," "I Love Lucy" (two of King's patented monologues), and the beautiful "You're Gonna Need Me." Great stuff.

Tracklist:

01 - Cold Feet
02 - You're Gonna Need Me
03 - Born Under A Bad Sign
04 - (I Love) Lucy
05 - Crosscut Saw
06 - You Sure Drive A Hard Bargain
07 - Oh, Pretty Woman (Can't Make You Love Me)
08 - Overall Junction
09 - Funk-Shun
10 - Laundromat Blues
11 - Personal Manager

Produced by Jim Stewart.
Mastering engineer: Zal Schreiber.

Musicians:
Albert King - vocals, guitar
Steve Cropper - guitar
Donald "Duck" Dunn - bass
Wayne Jackson - trumpet
Booker T. Jones - keyboards
Andrew Love - tenor saxophone
Al Jackson Jr. - drums

Analyzed: Albert King / King Of The Blues Guitar
––––––––––––––––––––––––––––––––––––––––

DR Peak RMS Duration Track
––––––––––––––––––––––––––––––––––––––––
DR12 -0.16 dB -13.61 dB 2:50 01-Cold Feet
DR11 -0.26 dB -13.15 dB 2:52 02-You're Gonna Need Me
DR13 -0.38 dB -14.86 dB 2:49 03-Born Under A Bad Sign
DR13 -0.12 dB -14.37 dB 2:49 04-(I Love) Lucy
DR13 -0.10 dB -13.99 dB 2:36 05-Crosscut Saw
DR11 -0.14 dB -12.21 dB 3:23 06-You Sure Drive A Hard Bargain
DR12 -0.15 dB -13.68 dB 2:51 07-Oh, Pretty Woman (Can't Make You Love Me)
DR11 -0.23 dB -13.14 dB 2:22 08-Overall Junction
DR12 -0.10 dB -13.99 dB 3:48 09-Funk-Shun
DR12 -1.12 dB -13.98 dB 3:23 10-Laundromat Blues
DR10 -0.10 dB -12.14 dB 4:30 11-Personal Manager
––––––––––––––––––––––––––––––––––––––––

Number of tracks: 11
Official DR value: DR12

Samplerate: 192000 Hz
Channels: 2
Bits per sample: 24
Bitrate: 2941 kbps
Codec: FLAC
================================================================================


Thanks to the Original customer!