Alessia Cara - Know-It-All (2015) [Official Digital Download]

Posted By: HDV
Alessia Cara - Know-It-All (2015) [Official Digital Download]

Alessia Cara - Know-It-All (2015)
FLAC (tracks) 24-bit/44,1 kHz | Time - 47:34 minutes | 578 MB
Studio Master, Official Digital Download | Artwork: Front cover

The highly anticipated debut album, Know it All, from Canada native Alessia Cara is upon us!! Following the success of her EP Four Pink Walls, this album will be a continuation of her story as it is set to chronicle her journey from the girl who was stuck in her room writing songs to the blossoming star that she has become. Know It All will feature her hit single Here as well as other songs from the EP as a way to complete the narrative of who Alessia is and how she came be! Four Pink Walls was just the beginning and with Know It All set to arrive in stores this winter, everyone will want to stay tuned for more from Alessia Cara; you won't want to miss this. This deluxe edition contains three bonus tracks.

The teenage wallflower anthem "Here," Alessia Cara's debut for Def Jam, was released in May 2015 and sounded nothing like the hits – such as the Weeknd's "Earned It," Omarion's "Post to Be," and Rihanna's "B**** Better Have My Money" – that were at or around the top of Billboard's R&B chart. Even with instant recognition of the Isaac Hayes sample that drives it, "Here" sounded distinct, not only because its tracing of social anxieties was so palpable, but also because Cara sounded remarkably poised for her age. Three months later, the song appeared on Four Pink Walls, the debut EP from the Canadian singer and songwriter. None of the other four songs eclipsed that Top Ten R&B single, but each one of them was sturdy, fusing and switching between smart pop and R&B constructions as Cara sang about growing up and falling in love. The EP closed with the title track, a melodious and triumphant piece of hip-hop soul where Cara reflected on her early success, knowing she had it in her while in a state of dazed disbelief nonetheless. Four Pink Walls is repeated as the first half of the full-length Know-It-All. Its all-new second half begins with "Wild Things," a theme for a clique of mild-mannered misfits, and concludes with the tactful "Scars to Your Beautiful," addressed to girls and women with a negative self-image. Between those two numbers, Cara straightforwardly longs and seeks stability, and then uses substance abuse and amusement park metaphors for a bumpy relationship. At all times, Cara is levelheaded, wise beyond her late-teen years – something that comes across through her observations – and she has a measured delivery and faintly grainy voice to match. Discovered through YouTube, she was smartly set up with Andrew "Pop" Wansel and Warren "Oak" Felder, whose input here as producers and fellow songwriters complements what they've done beside the likes of Chrisette Michele, Alicia Keys, Tamia, and especially Elle Varner. Upcoming songwriter Coleridge Tillman (aka Sebastian Kole) also contributes. Going by the level of potential shown here, it's evident that Cara will eventually need a lot less creative assistance.

Tracklist:

01 - Seventeen
02 - Here
03 - Outlaws
04 - I'm Yours
05 - Four Pink Walls
06 - Wild Things
07 - Stone
08 - Overdose
09 - Stars
10 - Scars To Your Beautiful
11 - Here
12 - River Of Tears
13 - My Song

Analyzed: Alessia Cara / Know-It-All
––––––––––––––––––––––––––––––––––––––––

DR Peak RMS Duration Track
––––––––––––––––––––––––––––––––––––––––
DR4 0.00 dB -5.66 dB 3:33 01-Seventeen
DR5 0.00 dB -5.78 dB 3:19 02-Here
DR5 0.00 dB -6.80 dB 3:23 03-Outlaws
DR5 0.00 dB -5.99 dB 3:49 04-I'm Yours
DR5 0.00 dB -5.87 dB 3:32 05-Four Pink Walls
DR4 0.00 dB -6.31 dB 3:08 06-Wild Things
DR5 0.00 dB -7.30 dB 3:48 07-Stone
DR5 0.00 dB -6.10 dB 3:29 08-Overdose
DR7 -0.94 dB -9.66 dB 3:40 09-Stars
DR5 0.00 dB -6.47 dB 3:50 10-Scars To Your Beautiful
DR8 0.00 dB -10.65 dB 3:46 11-Here
DR7 0.00 dB -8.95 dB 4:14 12-River Of Tears
DR5 0.00 dB -6.29 dB 4:02 13-My Song
––––––––––––––––––––––––––––––––––––––––

Number of tracks: 13
Official DR value: DR5

Samplerate: 44100 Hz
Channels: 2
Bits per sample: 24
Bitrate: 1722 kbps
Codec: FLAC
================================================================================


Thanks to the Original customer!


H E R E

password: AvaxHome





H E R E

password: AvaxHome




.