Amy Winehouse - Back To Black (2006/2015) [Official Digital Download 24-bit/96kHz] RE-UP

Posted By: HDV
Amy Winehouse - Back To Black (2006/2015) [Official Digital Download 24-bit/96kHz] RE-UP

Amy Winehouse - Back To Black (2006/2015)
FLAC (tracks) 24-bit/96 kHz | Time - 34:58 minutes | 868 MB
Studio Master, Official Digital Download | Artwork: Front cover

"Back to Black" is the second and final studio album by English singer and songwriter Amy Winehouse. At the 50th Annual Grammy Awards ceremony, Back to Black won Best Pop Vocal Album and was also nominated for Album of the Year. At the same ceremony, Winehouse won four additional awards meaning that she ties with five other artists as the second-most awarded female in a single ceremony. The album was also nominated at the 2007 Brit Awards for MasterCard British Album and was shortlisted for the 2007 Mercury Prize. Back to Black sold 3.58 million copies in the UK alone, becoming the UK's second best-selling album of the 21st century. Worldwide, the album has sold over 20 million copies.

A collection of B-sides to Amy Winehouse's massive Back to Black album, this eight-track set features a range of material (nearly all consisting of covers) and functions at nearly the same high level as the A-sides and album tracks – no small feat. The first track is a slower version of the Zutons' song "Valerie" that Winehouse had done earlier with Mark Ronson for Ronson's Version album (and also featured in the film 27 Dresses). The second is Sam Cooke's "Cupid," done refreshingly simply, and bolstered most by Winehouse's expressive voice. The third is Toots & the Maytals' "Monkey Man," and here too Winehouse shows her talents and adeptness sailing the waters of other genres and other traditions. (Reggae and ska are touchstones here – also included are versions of the Specials' "Hey Little Rich Girl" and the Skatalites' "You're Wondering Now," the latter of which was also done by the Specials.) Other notables include Phil Spector's "To Know Him Is to Love Him" and a demo of "Love Is a Losing Game.

Tracklist:

01 - Rehab
02 - You Know I'm No Good
03 - Me & Mr Jones
04 - Just Friends
05 - Back To Black
06 - Love Is A Losing Game
07 - Tears Dry On Their Own
08 - Wake Up Alone
09 - Some Unholy War
10 - He Can Only Hold Her
11 - Addicted

Analyzed: Amy Winehouse / Back To Black
––––––––––––––––––––––––––––––––––––––––

DR Peak RMS Duration Track
––––––––––––––––––––––––––––––––––––––––
DR5 -0.69 dB -6.87 dB 3:35 01-Rehab
DR6 0.00 dB -7.26 dB 4:17 02-You Know I'm No Good
DR7 0.00 dB -8.76 dB 2:33 03-Me & Mr Jones
DR8 0.00 dB -9.39 dB 3:13 04-Just Friends
DR5 -0.44 dB -8.24 dB 4:01 05-Back To Black
DR6 -0.54 dB -8.90 dB 2:35 06-Love Is A Losing Game
DR6 -0.65 dB -7.64 dB 3:06 07-Tears Dry On Their Own
DR6 -0.67 dB -8.14 dB 3:42 08-Wake Up Alone
DR8 -0.03 dB -9.57 dB 2:23 09-Some Unholy War
DR6 -0.24 dB -8.21 dB 2:46 10-He Can Only Hold Her
DR7 -0.51 dB -8.18 dB 2:45 11-Addicted
––––––––––––––––––––––––––––––––––––––––

Number of tracks: 11
Official DR value: DR6

Samplerate: 96000 Hz
Channels: 2
Bits per sample: 24
Bitrate: 3390 kbps
Codec: FLAC
================================================================================


Thanks to the Original customer!

Amy Winehouse - Frank (2003)