Ann Hampton Callaway - Blues In The Night (2006) [2.0 & 5.1] PS3 ISO + Hi-Res FLAC

Posted By: HDAtall
Ann Hampton Callaway - Blues In The Night (2006) [2.0 & 5.1] PS3 ISO + Hi-Res FLAC

Ann Hampton Callaway - Blues In The Night (2006)
PS3 Rip | SACD ISO | DST64 2.0 & 5.1 > 1-bit/2.8224 MHz | 55:14 minutes | Artwork | 3,66 GB
or FLAC 2.0 Stereo (converted with foobar2000 to tracks) 24bit/88,2 kHz | Artwork | 1,15 GB
Features Stereo and Multichannel surround sound | Telarc # SACD-63641

Ann Hampton Callaway is not your typical jazz songbird. For one thing, she's an accomplished and award-winning songwriter, which is unusual in a field dominated by interpreters. But what's most surprising is her voice – it's a low alto instrument with a rich, dark, butterscotchy tone, and when she gets way down into her lower range the effect can be downright startling. Her latest album is a pleasing mixture of originals and standards, some performed with a small combo that includes bassist Christian McBride and drummer Lewis Nash, others with the all-female Diva Jazz Orchestra. The big-band pieces pack the most wallop, which is no surprise given both the quality of the band and the fact that the arrangements were written by the great Tommy Newsom; a powerhouse rendition of her own "Swingin' Away the Blues" opens the program with a serious bang, and her small-scale but equally powerful take on the chestnut "Blue Moon" carries the energy forward nicely. The rest of the album is a mix of tender ballads and vibrant uptempo numbers, most with a theme related to the blues, either in a mood of resigned acceptance ("Spring Can Really Hang You Up the Most," "Willow Weep for Me") or defiant opposition (the Callaway original "Hip to Be Happy"). She imbues most of these songs with a smoldering, torchy quality that brings new energy to old material, and her new songs stand up very nicely next to the established standards. Highly recommended.

Tracklist:

01. Swingin' Away the Blues
02. Blue Moon
03. Spring Can Really Hang You Up The Most
04. Lover Come Back To Me
05. Stormy Weather/When The Sun Comes Out
06. The I'm-Too-White-To-Sing-The-Blues Blues
07. Willow Weep For Me
08. Hip To Be Happy
09. It's All Right With Me
10. No One Is Alone
11. Blues In the Night
12. The Glory of Love

foobar2000 1.2.9 / Dynamic Range Meter 1.1.1

––––––––––––––––––––––––––––––––––––––––
Analyzed: Ann Hampton Callaway / Blues in the Night
––––––––––––––––––––––––––––––––––––––––

DR Peak RMS Duration Track
––––––––––––––––––––––––––––––––––––––––
DR12 -3.65 dB -20.59 dB 3:30 01-Swingin' Away the Blues
DR12 -3.33 dB -20.71 dB 5:39 02-Blue Moon
DR12 -3.53 dB -22.70 dB 6:20 03-Spring Can Really Hang You Up The Most
DR13 -3.18 dB -21.47 dB 3:23 04-Lover Come Back To Me
DR12 -3.55 dB -21.81 dB 5:13 05-Stormy Weather/When The Sun Comes Out
DR13 -3.86 dB -22.13 dB 3:41 06-The I'm-Too-White-To-Sing-The-Blues Blues
DR12 -4.17 dB -23.11 dB 6:18 07-Willow Weep For Me
DR13 -3.79 dB -23.48 dB 2:44 08-Hip To Be Happy
DR12 -3.54 dB -23.07 dB 5:53 09-It's All Right With Me
DR12 -4.61 dB -25.57 dB 4:34 10-No One Is Alone
DR13 -3.80 dB -21.45 dB 4:51 11-Blues In the Night
DR12 -3.53 dB -20.89 dB 3:09 12-The Glory of Love
––––––––––––––––––––––––––––––––––––––––

Number of tracks: 12
Official DR value: DR12

Samplerate: 2822400 Hz / PCM Samplerate: 88200 Hz
Channels: 6
Bits per sample: 24
Bitrate: 16934 kbps
Codec: DST64
================================================================================

––––––––––––––––––––––––––––––––––––––––
Analyzed: Ann Hampton Callaway / Blues in the Night
––––––––––––––––––––––––––––––––––––––––

DR Peak RMS Duration Track
––––––––––––––––––––––––––––––––––––––––
DR14 -3.34 dB -19.02 dB 3:30 01-Swingin' Away the Blues
DR12 -3.98 dB -19.42 dB 5:39 02-Blue Moon
DR14 -5.76 dB -24.19 dB 6:20 03-Spring Can Really Hang You Up The Most
DR14 -3.62 dB -20.60 dB 3:23 04-Lover Come Back To Me
DR12 -4.68 dB -21.53 dB 5:13 05-Stormy Weather/When The Sun Comes Out
DR13 -4.03 dB -19.98 dB 3:41 06-The I'm-Too-White-To-Sing-The-Blues Blues
DR14 -5.53 dB -24.24 dB 6:18 07-Willow Weep For Me
DR15 -4.04 dB -21.73 dB 2:44 08-Hip To Be Happy
DR14 -5.83 dB -24.05 dB 5:53 09-It's All Right With Me
DR12 -8.83 dB -25.39 dB 4:34 10-No One Is Alone
DR13 -3.54 dB -20.43 dB 4:51 11-Blues In the Night
DR12 -3.53 dB -18.64 dB 3:09 12-The Glory of Love
––––––––––––––––––––––––––––––––––––––––

Number of tracks: 12
Official DR value: DR13

Samplerate: 2822400 Hz / PCM Samplerate: 88200 Hz
Channels: 2
Bits per sample: 24
Bitrate: 5645 kbps
Codec: DST64


Thanks to Philly Bob!
Uncompressed SACD ISO size > 3,49 GB
>