Aretha Franklin - Aretha (1980/2009/2014) [Official Digital Download 24bit/96kHz]

Posted By: HDV
Aretha Franklin - Aretha (1980/2009/2014) [Official Digital Download 24bit/96kHz]

Aretha Franklin - Aretha (1980/2009/2014)
FLAC (tracks) 24 bit/96 kHz | Time - 39:19 minutes | 861 MB
Studio Master, Official Digital Download | Artwork: Front cover

Aretha is the twenty-ninth studio album by American singer Aretha Franklin, Released on September 30, 1980 by Arista Records. This was the second album with this title to be released by the artist, and her first ever for Arista after a 12-year tenure with Atlantic Records. Other Franklin albums titled "Aretha" were also released in 1961 and 1986.

This is her first album with Arista after ending a 13-year, largely successful stint with Atlantic Records. By as early as 1973, Franklin's album turnout became spotty as late-'70s entries, Sweet Passion and La Diva came and went quickly. For Aretha, Arista label president Clive Davis drummed out a certain amount of fanfare for this initial effort, and for the most part it was deserved. Aretha attempts to pull out all of the stops, which is suitable for a major artist coming to a new label. The best moments here reestablish Franklin as a phenomenal singer, not just an icon. The brilliantly sung "United Together" and autumnal "Come to Me" have both Franklin and producer Chuck Jackson seemingly like they'd recorded together for years. What undoes Aretha is a few overproduced tracks of dubious distinction. The too busy cover of the Doobie Brothers "What a Fool Believes" fails Franklin, skimming past the song's lyrical. Her gospel-fueled childhood recollection "School Days" and a discofied cover of "I Can't Turn You Loose" are both ingratiating and potentially nerve racking. This effort was meant to reestablish Franklin, and it was more popular than most of her late-'70s Atlantic albums, but this could have been better.

Tracklist:

01 - Come to Me
02 - Can't Turn You Loose
03 - United Together
04 - Take Me With You
05 - Whatever It Is
06 - What A Fool Believes
07 - Together Again
08 - Love Me Forever
09 - School Days

Analyzed: Aretha Franklin / Aretha
––––––––––––––––––––––––––––––––––––––––

DR Peak RMS Duration Track
––––––––––––––––––––––––––––––––––––––––
DR11 -1.02 dB -15.09 dB 3:42 01-Come to Me
DR12 -0.55 dB -14.10 dB 3:54 02-Can't Turn You Loose
DR11 -1.06 dB -16.04 dB 5:02 03-United Together
DR12 -1.64 dB -16.13 dB 4:04 04-Take Me With You
DR12 -2.55 dB -19.70 dB 3:39 05-Whatever It Is
DR11 -0.61 dB -14.31 dB 5:12 06-What A Fool Believes
DR11 -1.50 dB -16.07 dB 5:16 07-Together Again
DR12 -0.55 dB -15.35 dB 3:32 08-Love Me Forever
DR10 -1.87 dB -15.30 dB 4:58 09-School Days
––––––––––––––––––––––––––––––––––––––––

Number of tracks: 9
Official DR value: DR11

Samplerate: 96000 Hz
Channels: 2
Bits per sample: 24
Bitrate: 2956 kbps
Codec: FLAC
================================================================================


Thanks to the Original customer!