Arne Domnerus, Leif Strands Kammarkor - Allt under himmelens faste (1974/2016) [DSD128 + Hi-Res FLAC]

Posted By: HDV
Arne Domnerus, Leif Strands Kammarkor - Allt under himmelens faste (1974/2016) [DSD128 + Hi-Res FLAC]

Arne Domnérus, Leif Strands Kammarkör - Allt under himmelens fäste (1974/2016)
DSD128 (.dsf) 1 bit/5,6 MHz | Time - 43:46 minutes | 1,9 GB
FLAC (tracks) 24-bit/88,2 kHz | Time - 43:46 minutes | 784 MB
Studio Master, Official Digital Download | Artwork: Digital booklet

Leif Strands Kammarkör was a Swedish chamber choir formed in the 1960s to integrate choir with traditional jazz. Originally released in 1974 on the audiophile label Proprius, this album features some of Sweden's top jazz musicians of the day including Arne Domnerus of Jazz at the Pawnshop fame.

Is this the line between folk and spiritual song? Between hymn to Christ's bride and the earthly love song? The border is not straight and clear, but on both sides lies a treasure of music and lyrics that we must have to stay alive - in our day and future , as an inheritance . . . Leif Strand and the musicians on this record, offer a kind of continuation of the sorrow and the joy.

Tracklist:

01 - Gläd dig, du Kristi brud (arr. L. Strand)
02 - Av himlens höjd (arr. G. Riedel)
03 - My Only Son (arr. G. Fristorp and L. Strand)
04 - Fransk julvisa (arr. L. Strand)
05 - O huvud, blodigt, sarat (arr. L. Strand)
06 - Gladjens blomster (arr. R. Gustafsson)
07 - Ande full av nåde (arr. B.J. Lindh and L. Strand)
08 - Ingen binner frem till den eviga ron (arr. L. Strand)
09 - Gå varsamt, o kristen (arr. L. Strand)
10 - Bergkirstis polska (arr. J. Johansson)
11 - Allt under himmelens fäste (arr. R. Gustafsson and L. Strand)

Musicians:
Arne Domnérus - alto saxophone
Claes Rosendahl - flute, tenor saxophone
Rune Gustafsson - guitar
Göran Fristorp - guitar, vocals
Bengt Hallberg - piano
Georg Riedel - double bass
Egil Johansen - drums, percussion
Leif Strands Kammarkör - Conducted & Arranged by Leif Strand.

This recording of Leif Strands Kammarkör with Claes Rosendhal, Arne Domnerus and Bengt Hallberg was transferred by 2xHD from the original ¼”, 15 ips CCIR master tape was played on a modified TELEFUNKEN M15 tape recorder with SAKI head, using a hi-end tube preamplifier with OCC silver cables. An analog transfer was done for each hi-res sampling and A & B comparisons were made with both the original LP, using the Kronos turntable, as well as with the best available CD, using the Nagra HD Dac and dCS Vivaldi DAC, throughout the process.

DSD was done using dCS 905 and dCS Vivaldi clock.
2xHD was created by producer/studio owner André Perry and audiophile sound engineer René Laflamme.

Analyzed: Arne Domnérus, Georg Riedel, Egil Johansen, Claes Rosendahl, Rune Gustafsson, Göran Fristorp, Bengt Hallberg, Leif Strands Kammarkör / Allt under himmelens fäste
––––––––––––––––––––––––––––––––––––––––

DR Peak RMS Duration Track
––––––––––––––––––––––––––––––––––––––––
DR10 -7.39 dB -23.41 dB 4:19 01-Gläd dig, du Kristi brud (arr. L. Strand)
DR11 -7.54 dB -24.93 dB 4:46 02-Av himlens höjd (arr. G. Riedel)
DR13 -13.23 dB -32.28 dB 4:09 03-My Only Son (arr. G. Fristorp and L. Strand)
DR13 -12.02 dB -30.31 dB 2:56 04-Fransk julvisa (arr. L. Strand)
DR12 -10.49 dB -27.80 dB 5:46 05-O huvud, blodigt, sarat (arr. L. Strand)
DR15 -12.01 dB -34.51 dB 2:46 06-Gladjens blomster (arr. R. Gustafsson)
DR11 -6.71 dB -23.88 dB 3:07 07-Ande full av nåde (arr. B.J. Lindh and L. Strand)
DR11 -9.85 dB -26.80 dB 5:30 08-Ingen binner frem till den eviga ron (arr. L. Strand)
DR12 -14.94 dB -34.33 dB 3:13 09-Gå varsamt, o kristen (arr. L. Strand)
DR12 -7.24 dB -25.33 dB 3:23 10-Bergkirstis polska (arr. J. Johansson)
DR13 -13.40 dB -33.61 dB 3:50 11-Allt under himmelens fäste (arr. R. Gustafsson and L. Strand)
––––––––––––––––––––––––––––––––––––––––

Number of tracks: 11
Official DR value: DR12

Samplerate: 5644800 Hz / PCM Samplerate: 88200 Hz
Channels: 2
Bits per sample: 1
Bitrate: 11290 kbps
Codec: DSD128
================================================================================


Thanks to the Original customer!

More with 'Arne Domnérus' in Hi-Res & DSD